Завантажити та скачати торренти українською


VA - Лирические песни 70-80-х годов. Весна по имени Светлана [Золота колекція] (2006) [WV] | Pop / Retro

Нові коментарі

Нова тема   Відповісти
Автор Повідомлення
ssTAss 
Модератор музики


З нами з: 05.07.08
Востаннє: 05.12.16
Повідомлень: 10941

2013-10-17 23:08  
VA - Лирические песни 70-80-х годов. Весна по имени Светлана [Золота колекція] (2006) [WV] | Pop / Retro

VA - Лирические песни 70-80-х годов. Весна по имени Светлана [Золота колекція] (2006) [WV] | Pop / Retro


Стиль: Pop
Країна: Україна
Видавець: Астра Рекордс
Пісні:
    1. ВИА "Свитязь" - 9-й класс (Б. Монастырский, Ю. Рыбчинский)
    2. ВИА "Виктория" - Разве можно (И. Поклад)
    3. Людмила Гримальская - Двое под дождем (В. Ильин, А. Вратарев)
    4. Валерий Леонтьев - Куда уехал цирк (В. Быстряков)
    5. ВИА "Водограй" - Тебе назло (М. Некрич, Ю. Финкель)
    6. ВИА "Поющие Юнги" - Честно говоря (Е. Дьячков)
    7. Людмила Гримальская - Песенка о сапожнике (Д. Тухманов, Б. Савельев)
    8. Григорий Гаркуша - Соловьиная роща (Д. Тухманов)
    9. Юлия Пашковская - Яблони в цвету (Е. Мартынов, И. Резник)
    10. ВИА "Мрия" - Август (Н. Ротта)
    11. Александр Чепурной - Качели (И. Поклад, А. Вратарев)
    12. Наталия Гура - Распахни окно (А. Левкович)
    13. Наталия Рожкова - Если в небе солнце светит (В. Ильин)
    14. Светлана Дидоренко - Уроки музыки (В. Ильин, Ю. Рыбчинский)
    15. Максим Шевцов - Шоколадная девчонка (С. Бондаренко)
    16. Антонина Дмитрухина - Золушка (И. Цветков, И. Резник)
    17. ВИА "Стожары" - Однажды (А. Мажуков)
    18. ВИА "Ритм" - Соловьи поют (Е. Мартынов)
    19. Николай Гнатюк - Малиновый звон (А. Морозов)
    20. София Ротару - Костер (А. Макаревич)
    21. Юрий Рожков - Звездная песня неба (Д. Тухманов)
    22. Людмила Артеменко - Рождение дня (В. Ивасюк, А. Дементьев)

Тривалість: 01:18:40
Мова: російська
Аудіо-кодек: WavPack
Бітрейт: 775 кб/с
Джерело: нетлаб (ріп worand'а)
Додаткова інформація:
log
Exact Audio Copy V1.0 beta 3 from 29. August 2011

EAC extraction logfile from 9. October 2013, 23:13

VA / Лирические песни 70-80-х годов. Весна по имени Светлана

Used drive : TSSTcorpCDDVDW SH-222BB Adapter: 3 ID: 1

Read mode : Secure
Utilize accurate stream : Yes
Defeat audio cache : Yes
Make use of C2 pointers : No

Read offset correction : 6
Overread into Lead-In and Lead-Out : No
Fill up missing offset samples with silence : Yes
Delete leading and trailing silent blocks : No
Null samples used in CRC calculations : Yes
Used interface : Installed external ASPI interface

Used output format : User Defined Encoder
Selected bitrate : 1024 kBit/s
Quality : High
Add ID3 tag : No
Command line compressor : C:\Program Files (x86)\Exact Audio Copy\wavpack.exe
Additional command line options : -hm %source% %dest%

TOC of the extracted CD

Track | Start | Length | Start sector | End sector
---------------------------------------------------------
1 | 0:00.00 | 2:52.01 | 0 | 12900
2 | 2:52.01 | 2:58.49 | 12901 | 26299
3 | 5:50.50 | 2:28.45 | 26300 | 37444
4 | 8:19.20 | 4:07.36 | 37445 | 56005
5 | 12:26.56 | 3:45.01 | 56006 | 72881
6 | 16:11.57 | 2:59.00 | 72882 | 86306
7 | 19:10.57 | 4:03.28 | 86307 | 104559
8 | 23:14.10 | 3:03.28 | 104560 | 118312
9 | 26:17.38 | 3:29.30 | 118313 | 134017
10 | 29:46.68 | 3:28.56 | 134018 | 149673
11 | 33:15.49 | 3:10.06 | 149674 | 163929
12 | 36:25.55 | 4:37.64 | 163930 | 184768
13 | 41:03.44 | 4:14.07 | 184769 | 203825
14 | 45:17.51 | 3:29.03 | 203826 | 219503
15 | 48:46.54 | 3:43.27 | 219504 | 236255
16 | 52:30.06 | 3:20.18 | 236256 | 251273
17 | 55:50.24 | 3:26.14 | 251274 | 266737
18 | 59:16.38 | 2:59.36 | 266738 | 280198
19 | 62:15.74 | 4:46.01 | 280199 | 301649
20 | 67:02.00 | 3:57.15 | 301650 | 319439
21 | 70:59.15 | 3:35.03 | 319440 | 335567
22 | 74:34.18 | 4:06.04 | 335568 | 354021

Range status and errors

Selected range

Filename F:\NetLab\Лирические песни 70-80-х годов. Весна по имени Светлана\VA - Лирические песни 70-80-х годов. Весна по имени Светлана.wav

Peak level 97.2 %
Extraction speed 8.4 X
Range quality 100.0 %
Test CRC 06262F45
Copy CRC 06262F45
Copy OK

No errors occurred

AccurateRip summary

Track 1 not present in database
Track 2 not present in database
Track 3 not present in database
Track 4 not present in database
Track 5 not present in database
Track 6 not present in database
Track 7 not present in database
Track 8 not present in database
Track 9 not present in database
Track 10 not present in database
Track 11 not present in database
Track 12 not present in database
Track 13 not present in database
Track 14 not present in database
Track 15 not present in database
Track 16 not present in database
Track 17 not present in database
Track 18 not present in database
Track 19 not present in database
Track 20 not present in database
Track 21 not present in database
Track 22 not present in database

None of the tracks are present in the AccurateRip database

End of status report
fooCDtect
fooCDtect - foobar2000 + auCDtect, baralgin.

auCDtect: CD records authenticity detector, version 0.8.2
Copyright (c) 2004 Oleg Berngardt. All rights reserved.
Copyright (c) 2004 Alexander Djourik. All rights reserved.

mode: 0

===========================================
Track: 01 - 9-й класс
Quality: CDDA 99%
===========================================
Track: 02 - Разве можно
Quality: MPEG 95%
===========================================
Track: 03 - Двое под дождем
Quality: MPEG 95%
===========================================
Track: 04 - Куда уехал цирк
Quality: CDDA 99%
===========================================
Track: 05 - Тебе назло
Quality: CDDA 100%
===========================================
Track: 06 - Честно говоря
Quality: CDDA 100%
===========================================
Track: 07 - Песенка о сапожнике
Quality: CDDA 99%
===========================================
Track: 08 - Соловьиная роща
Quality: CDDA 100%
===========================================
Track: 09 - Яблони в цвету
Quality: MPEG 95%
===========================================
Track: 10 - Август
Quality: CDDA 100%
===========================================
Track: 11 - Качели
Quality: CDDA 100%
===========================================
Track: 12 - Распахни окно
Quality: CDDA 94%
===========================================
Track: 13 - Если в небе солнце светит
Quality: CDDA 100%
===========================================
Track: 14 - Уроки музыки
Quality: CDDA 100%
===========================================
Track: 15 - Шоколадная девчонка
Quality: CDDA 99%
===========================================
Track: 16 - Золушка
Quality: CDDA 100%
===========================================
Track: 17 - Однажды
Quality: CDDA 100%
===========================================
Track: 18 - Соловьи поют
Quality: MPEG 95%
===========================================
Track: 19 - Малиновый звон
Quality: CDDA 94%
===========================================
Track: 20 - Костер
Quality: CDDA 100%
===========================================
Track: 21 - Звездная песня неба
Quality: CDDA 100%
===========================================
Track: 22 - Рождение дня
Quality: CDDA 100%
===========================================


Якщо Ви справді бажаєте підтримати українське - після прослуховування, якщо музика вам сподобалась,
придбайте ліцензійний диск.
Підтримаймо вітчизняних виконавців!


Срібний реліз (на рейтинг впливає 50% завантаженого)
 Трекер:    Зареєстрований   

Завантажити / скачати українську музику



відео для новачків



 Зареєстрований:   2013-10-17 23:08
 Розмір:   465 MB 
 Оцінка музики:   4.6/10 (Голосів: 15)
   
Ваш часовий пояс: GMT + 2 Години

Нова тема   Відповісти