Завантажити та скачати торренти українською


ВІА "Кобза" - Вибране (2008) [WV] | Pop / Folk

Нові коментарі

Нова тема   Відповісти
Останній раз роздавалося ssTAss (2016-11-27)
Автор Повідомлення
ssTAss 
Модератор музики


З нами з: 05.07.08
Востаннє: 03.12.16
Повідомлень: 10932

2013-10-17 19:59  
ВІА "Кобза" - Вибране (2008) [WV] | Pop / Folk

ВІА "Кобза" - Вибране (2008) [WV] | Pop / Folk


Стиль: Folk Pop
Країна, місто: Україна, Київ
Сайти: Офіційний сайт
Видавець: Мелодия, СтильРекордс
Пісні:
    1. Щедрiвка
    2. Ой, ходила дiвчина бережком
    3. Iшов казак потайком
    4. У суботу молотив я
    5. Люби мене, не покинь
    6. Не сходило враницi сонечко
    7. Дударик
    8. Ой гаю, гаю
    10. Баллада о двух лебедях
    11. Нiч яка мiсячна
    12. Голубiвна
    13. На Iвана Купала
    14. Ой, при лужку
    15. Зачекай
log
Exact Audio Copy V1.0 beta 2 from 29. April 2011

EAC extraction logfile from 16. October 2013, 22:43

Кобза / Избранное

Used drive : Optiarc DVD RW AD-5200A Adapter: 0 ID: 0

Read mode : Secure
Utilize accurate stream : Yes
Defeat audio cache : Yes
Make use of C2 pointers : No

Read offset correction : 48
Overread into Lead-In and Lead-Out : No
Fill up missing offset samples with silence : Yes
Delete leading and trailing silent blocks : No
Null samples used in CRC calculations : Yes
Used interface : Native Win32 interface for Win NT & 2000

Used output format : User Defined Encoder
Selected bitrate : 896 kBit/s
Quality : High
Add ID3 tag : No
Command line compressor : C:\Program Files\Exact Audio Copy\wavpack.exe
Additional command line options : -hlmx2 %source% %dest%

TOC of the extracted CD

Track | Start | Length | Start sector | End sector
---------------------------------------------------------
1 | 0:00.00 | 1:13.67 | 0 | 5541
2 | 1:13.67 | 3:11.08 | 5542 | 19874
3 | 4:25.00 | 3:43.07 | 19875 | 36606
4 | 8:08.07 | 4:40.73 | 36607 | 57679
5 | 12:49.05 | 3:25.64 | 57680 | 73118
6 | 16:14.69 | 4:05.05 | 73119 | 91498
7 | 20:19.74 | 3:05.41 | 91499 | 105414
8 | 23:25.40 | 4:33.72 | 105415 | 125961
9 | 27:59.37 | 2:51.28 | 125962 | 138814
10 | 30:50.65 | 2:39.25 | 138815 | 150764
11 | 33:30.15 | 2:39.09 | 150765 | 162698
12 | 36:09.24 | 3:10.36 | 162699 | 176984
13 | 39:19.60 | 2:53.62 | 176985 | 190021
14 | 42:13.47 | 3:08.49 | 190022 | 204170
15 | 45:22.21 | 4:13.00 | 204171 | 223145

Range status and errors

Selected range

Filename E:\Kobza_NetLab_e2k_ru\Кобза - Избранное.wav

Peak level 99.1 %
Extraction speed 3.9 X
Range quality 100.0 %
Test CRC 977AAC77
Copy CRC 977AAC77
Copy OK

No errors occurred

AccurateRip summary

Track 1 accurately ripped (confidence 1) [7F0C554B] (AR v1)
Track 2 accurately ripped (confidence 1) [08452FB8] (AR v1)
Track 3 accurately ripped (confidence 1) [0762C5A5] (AR v1)
Track 4 accurately ripped (confidence 1) [9263552C] (AR v1)
Track 5 accurately ripped (confidence 1) [8816A6ED] (AR v1)
Track 6 accurately ripped (confidence 1) [9254043D] (AR v1)
Track 7 accurately ripped (confidence 1) [4D09EAC6] (AR v1)
Track 8 accurately ripped (confidence 1) [B413D518] (AR v1)
Track 9 accurately ripped (confidence 1) [05081B7C] (AR v1)
Track 10 accurately ripped (confidence 1) [FB15679A] (AR v1)
Track 11 accurately ripped (confidence 1) [34758708] (AR v1)
Track 12 accurately ripped (confidence 1) [281306C0] (AR v1)
Track 13 accurately ripped (confidence 1) [6DDE31AE] (AR v1)
Track 14 accurately ripped (confidence 1) [80322BB1] (AR v1)
Track 15 accurately ripped (confidence 1) [BF0BCEB1] (AR v1)

All tracks accurately ripped

End of status report

==== Log checksum A5B2813CE01FDBADDB12638F56A3AF1FDE3FE9F7026F470508162446B91D6F63 ====
fooCDtect
fooCDtect - foobar2000 + auCDtect, baralgin.

auCDtect: CD records authenticity detector, version 0.8.2
Copyright (c) 2004 Oleg Berngardt. All rights reserved.
Copyright (c) 2004 Alexander Djourik. All rights reserved.

mode: 0

===========================================
Track: 01 - Щедрiвка
Quality: CDDA 100%
===========================================
Track: 02 - Ой, ходила дiвчина бережком
Quality: CDDA 100%
===========================================
Track: 03 - Iшов казак потайком
Quality: CDDA 100%
===========================================
Track: 04 - У суботу молотив я
Quality: CDDA 99%
===========================================
Track: 05 - Люби мене, не покинь
Quality: CDDA 100%
===========================================
Track: 06 - Не сходило враницi сонечко
Quality: CDDA 100%
===========================================
Track: 07 - Дударик
Quality: CDDA 100%
===========================================
Track: 08 - Ой Гаю, Гаю
Quality: CDDA 100%
===========================================
Track: 09 - Впали двi зiрницi
Quality: CDDA 58%
===========================================
Track: 10 - Баллада о двух лебедях
Quality: CDDA 100%
===========================================
Track: 11 - Нiч яка мiсячна
Quality: CDDA 100%
===========================================
Track: 12 - Голубiвна
Quality: CDDA 99%
===========================================
Track: 13 - На Iвана Купала
Quality: CDDA 100%
===========================================
Track: 14 - Ой, при лужку
Quality: CDDA 100%
===========================================
Track: 15 - Зачекай
Quality: CDDA 100%
===========================================
Тривалість: 00:49:35
Мова: українська
Аудіо-кодек: WavPack
Бітрейт: 748 кб/с
Джерело: нетлаб

Якщо Ви справді бажаєте підтримати українське - після прослуховування, якщо музика вам сподобалась,
придбайте ліцензійний диск.
Підтримаймо вітчизняних виконавців!


Срібний реліз (на рейтинг впливає 50% завантаженого)
 Трекер:    Зареєстрований   

Завантажити / скачати українську музику



відео для новачків



 Зареєстрований:   2013-10-17 19:59
 Розмір:   301 MB 
 Оцінка музики:   7.5/10 (Голосів: 11)
   
Ваш часовий пояс: GMT + 2 Години

Нова тема   Відповісти