Завантажити та скачати торренти українською


Всесвітня Війна Z / World War Z (2013) 1080p | 3D-Video

Нові коментарі

Нова тема   Відповісти
Автор Повідомлення
seroga13 
VIP


З нами з: 22.06.09
Востаннє: 02.12.16
Повідомлень: 257

2013-10-15 17:15  
Всесвітня Війна Z / World War Z (2013) 1080p Ukr/Eng | 3D-Video

Всесвітня Війна Z / World War Z (2013) 1080p | 3D-Video


Жанр: бойовик, жахи, пригодницький, трилер, фантастика
Країна: США, Мальта



Кінокомпанія: Plan B Entertainment, Apparatus Productions, GK Films
Режисер: Марк Форстер (Marc Forster)
Актори: Бред Пітт (Brad Pitt), Мирей Инос (Mireille Enos), Джеймс Бедж Дейл (James Badge Dale), Метью Фокс (Matthew Fox), Даніелла Кертеш (Daniella Kertesz), Луді Бокен (Ludi Boeken), Фана Мокоена (Fana Mokoena) та інші.

Сюжет:
Напад живих мерців - не жарт і не казка. Зомбі відразу стали реальністю - і реальність ця загрожує загибеллю всьому людству. Вони, такі що гниють, напіврозкладені, практично невразливі - зате дрібні поранення, завдані ними живій людині, загрожує перетворити його на зомбі. Армія живих мерців захоплює країну за країною, континент за континентом. Гинуть, намагаючись запобігти прийдешньому Апокаліпсису, тисячі військових Росії, десятки і сотні партизан Європи, Азії та США. Земля - на краю катастрофи. І зовсім невідомо, як боротися з противником, який вже мертвий ...


Тривалість: 01:56:01
Відео:
кодек:
розмір кадру: 1920х1080
бітрейт: 9526 кб/с

Аудіо # 1:
мова: українська
переклад: професійний дубльований
кодек: 5.1
бітрейт: 448 кб/с

Аудіо # 2:
мова: англійська
переклад: професійний дубльований
кодек: 5.1
бітрейт: 640 кб/с

Джерело озвучення:
MediaInfo
eneral
Unique ID : 199797817797789637731039055425914299068 (0x964FA8F68BDDD8EFA5730B359FD862BC)
Complete name : E:DownloadsWorldWarZ(2013)3D-halfOU(Ash61)TheatricalCutWorldWarZ(2013)3D-halfOU(Ash61)TheatricalCut.mkv
Format : Matroska
Format version : Version 2
File size : 8.93 GiB
Duration : 1h 56mn
Overall bit rate : 11.0 Mbps
Movie name : World War Z (2013) 3D
Encoded date : UTC 2013-09-13 16:00:52
Writing application : mkvmerge v5.8.0 ('No Sleep / Pillow') built on Sep 2 2012 15:37:04
Writing library : libebml v1.2.3 + libmatroska v1.3.0

Video
ID : 1
Format : AVC
Format/Info : Advanced Video Codec
Format profile : [email protected]
Format settings, CABAC : Yes
Format settings, ReFrames : 4 frames
Codec ID : V_MPEG4/ISO/AVC
Duration : 1h 56mn
Bit rate : 9 521 Kbps
Width : 1 920 pixels
Height : 1 080 pixels
Display aspect ratio : 16:9
Frame rate mode : Constant
Frame rate : 23.976 fps
Color space : YUV
Chroma subsampling : 4:2:0
Bit depth : 8 bits
Scan type : Progressive
Bits/(Pixel*Frame) : 0.191
Stream size : 7.72 GiB (86%)
Title : Theatrical Cut - by Ash61
Writing library : core 129 r2245 bc13772
Encoding settings : cabac=1 / ref=4 / deblock=1:-3:-3 / analyse=0x3:0x113 / me=umh / subme=10 / psy=1 / psy_rd=1.00:0.15 / mixed_ref=1 / me_range=32 / chroma_me=1 / trellis=2 / 8x8dct=1 / cqm=0 / deadzone=21,11 / fast_pskip=1 / chroma_qp_offset=-3 / threads=12 / lookahead_threads=2 / sliced_threads=0 / nr=0 / decimate=1 / interlaced=0 / bluray_compat=0 / constrained_intra=0 / bframes=9 / b_pyramid=2 / b_adapt=2 / b_bias=0 / direct=3 / weightb=1 / open_gop=0 / weightp=2 / keyint=250 / keyint_min=23 / scenecut=40 / intra_refresh=0 / rc_lookahead=60 / rc=crf / mbtree=1 / crf=16.5 / qcomp=0.70 / qpmin=0 / qpmax=69 / qpstep=4 / vbv_maxrate=40000 / vbv_bufsize=30000 / crf_max=0.0 / nal_hrd=none / frame-packing=4 / ip_ratio=1.40 / aq=1:0.70
Language : English
Default : Yes
Forced : No

Audio #1
ID : 2
Format : AC-3
Format/Info : Audio Coding 3
Mode extension : CM (complete main)
Format settings, Endianness : Big
Codec ID : A_AC3
Duration : 1h 56mn
Bit rate mode : Constant
Bit rate : 448 Kbps
Channel(s) : 6 channels
Channel positions : Front: L C R, Side: L R, LFE
Sampling rate : 48.0 KHz
Bit depth : 16 bits
Compression mode : Lossy
Stream size : 531 MiB (6%)
Title : Дубляж - Paramount Pictures
Language : Ukrainian
Default : Yes
Forced : No

Audio #2
ID : 3
Format : AC-3
Format/Info : Audio Coding 3
Mode extension : CM (complete main)
Format settings, Endianness : Big
Codec ID : A_AC3
Duration : 1h 56mn
Bit rate mode : Constant
Bit rate : 640 Kbps
Channel(s) : 6 channels
Channel positions : Front: L C R, Side: L R, LFE
Sampling rate : 48.0 KHz
Bit depth : 16 bits
Compression mode : Lossy
Stream size : 531 MiB (6%)
Title : Original
Language : English
Default : No
Forced : No

Menu
00:00:00.000 : :1
00:05:05.180 : :2
00:13:04.659 : :3
00:20:31.188 : :4
00:27:02.579 : :5
00:32:38.039 : :6
00:39:35.331 : :7
00:49:06.152 : :8
00:55:22.027 : :9
01:01:41.239 : :10
01:09:18.654 : :11
01:17:03.035 : :12
01:22:09.842 : :13
01:27:51.558 : :14
01:36:41.587 : :15
01:45:14.099 : :16
01:48:46.645 : :17
Скріншоти


Відео виконане в форматі 3D! Для перегляду потрібні спеціальні окуляри та стереоплеєр або телевізор з підтримкою технології 3D!

Інструкції щодо перегляду відео у форматі 3D


Джерело:
Особиста оцінка: 10 - без зайвих вагань рекомендую всім!


 Трекер:    Зареєстрований   

Завантажити / скачати фільм українською



відео для новачків



 Зареєстрований:   2013-10-15 21:33
 Розмір:   8.78 GB 
 Оцінка фільму:   9.4/10 (Голосів: 17)
   
Інші релізи
   Всесвітня Війна Z [Розширена версія] / World War Z [Unrated Cut] (2013) AVC Ukr/Eng | Sub Ukr/Eng Yarik M  8 / 1   2.27 GB   2015-11-21 13:34 
   Всесвітня Війна Z [Розширена версія] / World War Z [Unrated Cut] (2013) 1080p Ukr/Eng | Sub Ukr/Eng Demrandir  4 / 1   11.57 GB   2015-11-19 21:18 
   Всесвітня Війна Z [Розширена версія] / World War Z [Unrated Cut] (2013) [5.1 ] Український дубляж + вставки оригіналу | Sub Ukr Demrandir  1 / 1   394 MB   2015-11-19 19:02 
   Всесвітня Війна Z / World War Z (2013) 1080p H.265 Ukr/Eng | Sub Ukr/Eng Tenax555  4 / 0   7.77 GB   2014-09-19 23:17 
   Всесвітня Війна Z / World War Z [Theatrical Cut] (2013) Remux 1080p Ukr/Eng | Sub Ukr/Eng 11FrYkT  5 / 0   28.18 GB   2013-10-09 06:53 
   Всесвітня Війна Z / World War Z [Theatrical Cut] (2013) AVC Ukr/Eng | Sub Ukr/Eng 11FrYkT  7 / 1   2.75 GB   2013-10-08 16:41 
   Всесвітня Війна Z / World War Z (2013) 720p Ukr/Eng | Sub Ukr/Eng sergiyko  2 / 0   5.18 GB   2013-10-08 13:12 
   Всесвітня Війна Z / World War Z (2013) sergiyko  23 / 0   1.51 GB   2013-10-08 12:38 
   Всесвітня Війна Z / World War Z [Theatrical Cut] (2013) 1080p Ukr/Eng | Sub Ukr/Eng igor911  8 / 0   9.7 GB   2013-10-08 03:56 
   Всесвітня війна Z [Театральна версія] / World War Z [Theatrical Cut] (2013) Ukr/Eng | Sub Ukr/Eng Jatx_11  8 / 0   2.18 GB   2013-10-07 23:34 
Pegass 
VIP


З нами з: 17.12.09
Востаннє: 02.12.16
Повідомлень: 301

2014-09-27 15:22  
seroga13 написано:

Аудіо # 2:

мова: англійська

переклад: професійний дубльований

кодек: 5.1

бітрейт: 640 кб/с

Виправте.. там має бути написано переклад: оригінал

quadroval 
Новенький


З нами з: 28.12.10
Востаннє: 29.11.16
Повідомлень: 12

2015-01-28 19:48  
фільм сподобався, а от звук - дуже стрибає гучність, там де ефекти бабахкає раза в 2-3 сильніше, а розмови набагато тихші. На компі то є нормалізація у MPC HC, а от на телеку доводиться звук туди сюди ганяти.
А за реліз подяка!

Bugaj UA 
Новенький


З нами з: 05.08.10
Востаннє: 01.12.16
Повідомлень: 12

2015-03-02 21:03  
Хотів скачати у 3D але не буду, по звуку вже відписались. Через звук і не буду.
А за реліз у 3D дуже дякую, у цьому форматі мало релізів на hurtom.

Ваш часовий пояс: GMT + 2 Години

Нова тема   Відповісти