Завантажити та скачати торренти українською


Христина / Christine (1983) 1080p Ukr/Eng | Sub Eng

Нові коментарі

Нова тема   Відповісти
Останній раз роздавалося predators (2016-12-01)
Автор Повідомлення
Anonymous 







2013-10-13 20:57  
Христина / Christine (1983) 1080p Ukr/Eng | Sub Eng



Stephen King's Classic

Альтернативні постери





Жанр: жахи, трилер, драма, детектив
Країна: США



Кінокомпанія: Columbia Pictures Corporation, Delphi Premier Productions, Polar Film
Режисер: Джон Карпентер / John Carpenter
Актори: Кейт Гордон / Keith Gordon, Джон Стоквелл / John Stockwell, Александра Пол / Alexandra Paul, Роберт Проскі / Robert Prosky, Гаррі Дін Стентон / Harry Dean Stanton, Робертс Блоссом / Roberts Blossom, Девід Спілберг / David Spielberg та інші

Сюжет:
Її звуть Христина. Її класичні форми викликають захоплення. Вона спокушає 17-річного Арні Каннінгема і робить його своїм слугою. У неї немає і не може бути суперниць, бо вона їх вбиває. Вона вимагає беззаперечного підпорядкування.

Вона ... автомобіль! Щоб зберегти своє життя, юнак повинен присвятити його жорстокій Христині. Історія розкішного червоного Плімута 1958 сповнена страшних таємниць. Всі його попередні хазяї загинули. І юний Ромео має стати черговою жертвою ненаситної Джульєтти.



Рейтинг MPAA: R - особам до 17 років обов'язкова присутність батьків або дорослого опікуна
Вікова категорія: 16+


Тривалість: 01:49:59
Якість: 1080p
Відео:
кодек:
розмір кадру: 1920x800
бітрейт: 8822 кб/с

Аудіо # 1: Студія "Мова", запис з
мова: українська
переклад: багатоголосий закадровий
кодек: 2.0
бітрейт: 192 кб/с

Аудіо # 2:
мова: англійська
переклад: оригінал
кодек: 5.1
бітрейт: 448 кб/с

Субтитри:
мова: англійська
тип: програмні (м'які)
формат: *.srt

Збережено оригінальні розділи, як на Blu-ray.
MediaInfo
Код:
General
Unique ID                                : 218074604038487753268479191645393468552 (0xA40FA418C29F4334B5A3CFA503533C88)
Complete name                            : Christine (1983) [Ukr,Eng sub.Eng] 1080p [Hurtom].mkv
Format                                   : Matroska
Format version                           : Version 4 / Version 2
File size                                : 7.27 GiB
Duration                                 : 1h 50mn
Overall bit rate                         : 9 456 Kbps
Movie name                               : Христина / Christine / Крістіна (1983) 1080p [Hurtom]
Encoded date                             : UTC 2013-10-13 17:19:36
Writing application                      : mkvmerge v6.4.1 ('Omega Point') built on Sep 16 2013 22:05:10
Writing library                          : libebml v1.3.0 + libmatroska v1.4.1

Video
ID                                       : 1
Format                                   : AVC
Format/Info                              : Advanced Video Codec
Format profile                           : [email protected]
Format settings, CABAC                   : Yes
Format settings, ReFrames                : 5 frames
Codec ID                                 : V_MPEG4/ISO/AVC
Duration                                 : 1h 50mn
Bit rate                                 : 8 822 Kbps
Width                                    : 1 920 pixels
Height                                   : 800 pixels
Display aspect ratio                     : 2.40:1
Frame rate mode                          : Constant
Frame rate                               : 23.976 fps
Color space                              : YUV
Chroma subsampling                       : 4:2:0
Bit depth                                : 8 bits
Scan type                                : Progressive
Bits/(Pixel*Frame)                       : 0.240
Stream size                              : 6.63 GiB (91%)
Title                                    : Христина / Christine / Кристина (1983) 1080p [Boriy]
Writing library                          : core 135 r2345 f0c1c53
Encoding settings                        : cabac=1 / ref=5 / deblock=1:-3:-3 / analyse=0x3:0x113 / me=umh / subme=11 / psy=1 / psy_rd=1.00:0.10 / mixed_ref=1 / me_range=32 / chroma_me=1 / trellis=2 / 8x8dct=1 / cqm=0 / deadzone=21,11 / fast_pskip=0 / chroma_qp_offset=-2 / threads=12 / lookahead_threads=1 / sliced_threads=0 / nr=0 / decimate=0 / interlaced=0 / bluray_compat=0 / constrained_intra=0 / bframes=6 / b_pyramid=2 / b_adapt=2 / b_bias=0 / direct=3 / weightb=1 / open_gop=0 / weightp=2 / keyint=240 / keyint_min=23 / scenecut=40 / intra_refresh=0 / rc=2pass / mbtree=0 / bitrate=8822 / ratetol=1.0 / qcomp=0.60 / qpmin=0 / qpmax=69 / qpstep=4 / cplxblur=20.0 / qblur=0.5 / ip_ratio=1.40 / pb_ratio=1.30 / aq=1:0.80
Language                                 : English
Default                                  : Yes
Forced                                   : No

Audio #1
ID                                       : 2
Format                                   : AC-3
Format/Info                              : Audio Coding 3
Mode extension                           : CM (complete main)
Format settings, Endianness              : Big
Codec ID                                 : A_AC3
Duration                                 : 1h 50mn
Bit rate mode                            : Constant
Bit rate                                 : 192 Kbps
Channel count                            : 2 channels
Channel positions                        : Front: L R
Sampling rate                            : 48.0 KHz
Bit depth                                : 16 bits
Compression mode                         : Lossy
Delay relative to video                  : 11ms
Stream size                              : 151 MiB (2%)
Title                                    : MVO [Mova-TRK Ukraina] 2.0 192 kbps [Hurtom-RB26DETT]
Language                                 : Ukrainian
Default                                  : Yes
Forced                                   : No

Audio #2
ID                                       : 3
Format                                   : AC-3
Format/Info                              : Audio Coding 3
Mode extension                           : CM (complete main)
Format settings, Endianness              : Big
Codec ID                                 : A_AC3
Duration                                 : 1h 50mn
Bit rate mode                            : Constant
Bit rate                                 : 448 Kbps
Channel count                            : 6 channels
Channel positions                        : Front: L C R, Side: L R, LFE
Sampling rate                            : 48.0 KHz
Bit depth                                : 16 bits
Compression mode                         : Lossy
Stream size                              : 353 MiB (5%)
Title                                    : Original 5.1 448 kbps
Language                                 : English
Default                                  : No
Forced                                   : No

Text
ID                                       : 4
Format                                   : UTF-8
Codec ID                                 : S_TEXT/UTF8
Codec ID/Info                            : UTF-8 Plain Text
Title                                    : Eng full
Language                                 : English
Default                                  : No
Forced                                   : No

Menu
00:00:00.000                             : :Start
00:01:34.000                             : :Detroit 1957
00:05:02.000                             : :Arnie Cunningham
00:09:22.000                             : :The New Girl
00:10:26.000                             : :Arnie's Lunch
00:15:58.000                             : :Christine
00:17:11.000                             : :George LeBay
00:21:56.000                             : :Darnell's Garage
00:27:33.000                             : :October 9
00:34:02.000                             : :Change in Arnie
00:36:11.000                             : :Lost Owner's Fate
00:37:42.000                             : :Keep A-Knockin'
00:39:04.000                             : :The Game
00:41:56.000                             : :November 5
00:47:57.000                             : :All Choked Up
00:53:50.000                             : :Revenge of the Punks
00:55:11.000                             : :Trashed
00:59:13.000                             : :"O.K. show Me."
01:01:33.000                             : :Moochie
01:05:56.000                             : :November 23
01:07:54.000                             : :Rudolph Junkins
01:12:49.000                             : :One Hot Car
01:17:59.000                             : :"The ride is over."
01:22:30.000                             : :Arnie's Alibi
01:27:39.000                             : :True Love
01:36:52.000                             : :Christine Arrives
01:40:09.000                             : :Arnie's Last Stand
01:42:01.000                             : :Bulldozer vs. Plymouth




Джерела та подяки:
ріп відео, оригінальні звук та субтитри - boriy (рутор); українська доріжка - RB26DETT - зведення, Disturbed - запис з ТБ; українські постери - thefir, grytzz (всі - Гуртом).


ЗАЛИШАЙТЕСЬ ЯКОМОГА ДОВШЕ НА РОЗДАЧІ!

СКАЧАВ САМ - ДАЙ СКАЧАТИ ІНШИМ


Срібний реліз (на рейтинг впливає 50% завантаженого)
 Трекер:    Зареєстрований   

Завантажити / скачати фільм українською



відео для новачків



 Зареєстрований:   2013-10-13 20:57
 Розмір:   7.27 GB 
 Оцінка фільму:   5/10 (Голосів: 18)
   
Інші релізи
bot 
робот


З нами з: 30.09.07
Востаннє: 26.05.05
Повідомлень: 15990

2016-08-14 17:47  
Тему перенесено з Фільми в HD до форуму Архів відео

Причина перенесення: Останній раз роздавалося predators (2016-04-23)
11FrYkT

bot 
робот


З нами з: 30.09.07
Востаннє: 26.05.05
Повідомлень: 15990

2016-11-04 09:24  
Тему перенесено з Архів відео до форуму Фільми в HD


igor911

Ваш часовий пояс: GMT + 2 Години

Нова тема   Відповісти