Завантажити та скачати торренти українською


Страшили [Режисерська версія] / The Frighteners [Director's Cut] (1996) 720p Ukr/Eng | sub Eng

Нові коментарі

Нова тема   Відповісти
Автор Повідомлення
Anonymous 







2013-10-13 15:59  
Страшили [Режисерська версія] / The Frighteners [Director's Cut] (1996) 720p Ukr/Eng | sub Eng







Жанр: комедія, жахи, трилер
Країна: Нова Зеландія, США



Кінокомпанія: Universal Pictures, WingNut Films
Режисер: Пітер Джексон / Peter Jackson
Актори: Майкл Джей Фокс / Michael J. Fox, Тріні Алварадо / Trini Alvarado, Пітер Добсон / Peter Dobson, Джон Остін / John Astin, Джефрі Комбс / Jeffrey Combs, Ді Волас / Dee Wallace, Джейк Базі / Jake Busey, Чі МакБрайд / Chi McBride, Джим Файф / Jim Fyfe, Трой Еванс / Troy Evans та інші

Сюжет:
Екстрасенс Френк Бенністер, який заробляє на життя тим, що за скромну винагороду успішно позбавляє будинки від полтергейсту, який сам заздалегідь наслав, стикається зі страшним супротивником, який повернувся з того світу, а вірніше, затримався на цьому після страти, маніяком-вбивцею.



Рейтинг MPAA: R - особам до 17 років обов'язкова присутність батьків або дорослого опікуна
Вікова категорія: 16+


Тривалість: 02:02:36
Якість: 720p
Відео:
кодек:
розмір кадру: 1280x544
бітрейт: 6000 кб/с

Аудіо # 1: Так Треба Продакшн на замовлення
мова: українська
переклад: багатоголосий закадровий
кодек: 5.1
бітрейт: 448 кб/с
ролі озвучили: Дмитро Терещук?, Олег Стальчук і два жіночих голоси

Аудіо # 2:
мова: англійська
переклад: оригінал
кодек: 5.1
бітрейт: 1536 кб/с

Субтитри # 1:
мова: українська (форсовані, до неозвучених місць режисерської версії)
тип: програмні (м'які)
формат: *.srt

Субтитри:
мова: англійська (повні)
тип: програмні (м'які)
формат: *.srt

Збережено оригінальні розділи, як на Blu-ray.
MediaInfo
Код:
General
Unique ID                                : 205395761335647708917596938311841350323 (0x9A85C8E373E88CB280F89AD968D402B3)
Complete name                            : The Frighteners (1996) [Ukr,Eng sub.Eng] 720p [Hurtom].mkv
Format                                   : Matroska
Format version                           : Version 4 / Version 2
File size                                : 6.81 GiB
Duration                                 : 2h 2mn
Overall bit rate                         : 7 955 Kbps
Movie name                               : Страшили / The Frighteners [Director's Cut] (1996) 720p [Hurtom]
Encoded date                             : UTC 2013-10-11 18:28:12
Writing application                      : mkvmerge v6.4.1 ('Omega Point') built on Sep 16 2013 22:05:10
Writing library                          : libebml v1.3.0 + libmatroska v1.4.1

Video
ID                                       : 1
Format                                   : AVC
Format/Info                              : Advanced Video Codec
Format profile                           : [email protected]
Format settings, CABAC                   : Yes
Format settings, ReFrames                : 11 frames
Codec ID                                 : V_MPEG4/ISO/AVC
Duration                                 : 2h 2mn
Bit rate                                 : 6 000 Kbps
Width                                    : 1 280 pixels
Height                                   : 544 pixels
Display aspect ratio                     : 2.35:1
Frame rate mode                          : Constant
Frame rate                               : 23.976 fps
Color space                              : YUV
Chroma subsampling                       : 4:2:0
Bit depth                                : 8 bits
Scan type                                : Progressive
Bits/(Pixel*Frame)                       : 0.359
Stream size                              : 5.00 GiB (73%)
Title                                    : Страшили / The Frighteners [Director's Cut] / Страшилы (1996) 720p [HQFans]
Writing library                          : core 118 r2085 8a62835
Encoding settings                        : cabac=1 / ref=11 / deblock=1:-3:-3 / analyse=0x3:0x113 / me=umh / subme=10 / psy=1 / psy_rd=1.00:0.10 / mixed_ref=1 / me_range=48 / chroma_me=1 / trellis=2 / 8x8dct=1 / cqm=0 / deadzone=21,11 / fast_pskip=0 / chroma_qp_offset=-3 / threads=12 / sliced_threads=0 / nr=0 / decimate=0 / interlaced=0 / bluray_compat=0 / constrained_intra=0 / bframes=11 / b_pyramid=2 / b_adapt=2 / b_bias=0 / direct=3 / weightb=1 / open_gop=0 / weightp=2 / keyint=250 / keyint_min=23 / scenecut=40 / intra_refresh=0 / rc_lookahead=40 / rc=2pass / mbtree=0 / bitrate=6000 / ratetol=1.0 / qcomp=0.60 / qpmin=0 / qpmax=69 / qpstep=4 / cplxblur=20.0 / qblur=0.5 / vbv_maxrate=40000 / vbv_bufsize=30000 / nal_hrd=none / ip_ratio=1.40 / pb_ratio=1.30 / aq=1:0.80
Language                                 : English
Default                                  : Yes
Forced                                   : No
Color primaries                          : BT.709
Transfer characteristics                 : BT.709
Matrix coefficients                      : BT.709

Audio #1
ID                                       : 2
Format                                   : AC-3
Format/Info                              : Audio Coding 3
Mode extension                           : CM (complete main)
Format settings, Endianness              : Big
Codec ID                                 : A_AC3
Duration                                 : 2h 2mn
Bit rate mode                            : Constant
Bit rate                                 : 448 Kbps
Channel count                            : 6 channels
Channel positions                        : Front: L C R, Side: L R, LFE
Sampling rate                            : 48.0 KHz
Bit depth                                : 16 bits
Compression mode                         : Lossy
Stream size                              : 393 MiB (6%)
Title                                    : MVO [TakTrebaProduction-Ukraina] 5.1 448 kbps [Hurtom-tarick]
Language                                 : Ukrainian
Default                                  : Yes
Forced                                   : No

Audio #2
ID                                       : 3
Format                                   :
Format/Info                              : Digital Theater Systems
Mode                                     : 16
Format settings, Endianness              : Big
Codec ID                                 : A_DTS
Duration                                 : 2h 2mn
Bit rate mode                            : Constant
Bit rate                                 : 1 509 Kbps
Channel count                            : 6 channels
Channel positions                        : Front: L C R, Side: L R, LFE
Sampling rate                            : 48.0 KHz
Bit depth                                : 24 bits
Compression mode                         : Lossy
Stream size                              : 1.29 GiB (19%)
Title                                    : Original 5.1 1510 kbps
Language                                 : English
Default                                  : No
Forced                                   : No

Text #1
ID                                       : 4
Format                                   : UTF-8
Codec ID                                 : S_TEXT/UTF8
Codec ID/Info                            : UTF-8 Plain Text
Title                                    : Ukr forced
Language                                 : Ukrainian
Default                                  : Yes
Forced                                   : Yes

Text #2
ID                                       : 5
Format                                   : UTF-8
Codec ID                                 : S_TEXT/UTF8
Codec ID/Info                            : UTF-8 Plain Text
Title                                    : Eng full SHD
Language                                 : English
Default                                  : No
Forced                                   : No

Menu
00:00:00.000                             : :Chapter 01
00:12:41.218                             : :Chapter 02
00:18:04.166                             : :Chapter 03
00:28:34.421                             : :Chapter 04
00:35:19.951                             : :Chapter 05
00:39:07.303                             : :Chapter 06
00:53:13.565                             : :Chapter 07
00:59:58.678                             : :Chapter 08
01:08:38.864                             : :Chapter 09
01:14:43.645                             : :Chapter 10
01:20:20.607                             : :Chapter 11
01:25:23.868                             : :Chapter 12
01:30:28.047                             : :Chapter 13
01:36:52.556                             : :Chapter 14
01:46:57.285                             : :Chapter 15
01:57:50.438                             : :Chapter 16
02:02:36.432                             : :Chapter 17




Джерела та подяки: & HQFans
ріп відео, оригінальні звук та субтитри - HQFans; українська доріжка - tarick - зведення, Merdiff - запис з ТБ; український постер - fazza (всі - Гуртом).

Особиста оцінка: 8 - мені сподобалося


ЗАЛИШАЙТЕСЬ ЯКОМОГА ДОВШЕ НА РОЗДАЧІ!

СКАЧАВ САМ - ДАЙ СКАЧАТИ ІНШИМ


Срібний реліз (на рейтинг впливає 50% завантаженого)
 Трекер:    Зареєстрований   

Завантажити / скачати фільм українською



відео для новачків



 Зареєстрований:   2013-10-13 15:59
 Розмір:   6.81 GB 
 Оцінка фільму:   5.6/10 (Голосів: 21)
   
Ваш часовий пояс: GMT + 2 Години

Нова тема   Відповісти