Завантажити та скачати торренти українською


Штурм Білого дому / White House Down (2013) 720p-mini

Нові коментарі

Нова тема   Відповісти
Автор Повідомлення
Drool 
VIP


З нами з: 17.04.10
Востаннє: 10.12.16
Повідомлень: 1270

2013-10-12 20:27  
Штурм Білого дому / White House Down (2013) 720p-mini

Жанр: екшн, драма, трилер
Країна: США



Кінокомпанія: Columbia Pictures, Mythology Entertainment (II), Centropolis Entertainment
Режисер: Роланд Еммеріх
Актори: Ченнінґ Тейтум, Джеймі Фокс, Меґґі Джилленгаал, Джейсон Кларк, Річард Дженкінс, Джеймс Вудс, Джої Кінґ, Ніколас Райт, Джиммі Сімпсон, Майкл Мерфі

Сюжет:
Нещодавно обраний президент Джеймс Соєр прагне миру на Близькому Сході, тому ініціює виведення американських військ з конфліктної території. Для цього він збирає нараду, на яку запрошено осіб з сенату і кабінету міністрів. Цю інформацію видає терористам зрадник з оточення президента і терористи вирішують скористатись цією ситуацію, коли в одній будівлі зберуться всі високопоставлені особи. Вони здійснюють штурм Білого дому і в заручниках опиняються всі, хто знаходиться в будівлі, в тому числі і Джон кейл, який прийшов на співбесіду на омріяну посаду разом з донькою Емілі. Під час цього і здійснюють напад терористи. Тепер спецагент змушений рятувати своє життя, життя доньки Емілі і президента США.


Тривалість: 02:11:32
Якість: 720p-mini
Відео:
кодек:
розмір кадру: 1280x534
бітрейт: 2595 кб/с

Аудіо:
мова: українська
переклад: професійний дубльований
кодек: 5.1
бітрейт: 640 кб/с

Джерело озвучення:
MediaInfo
General
Unique ID : 145353153945506789191187983202361192236 (0x6D59FFC99226D658F798FCF9E936AF2C)
Complete name : /mnt/disk_d/Video/Films/White.House.Down.2013.Ukr.Dub..720p-mini.mkv
Format : Matroska
File size : 2.97 GiB
Duration : 2h 11mn
Overall bit rate : 3 236 Kbps
Movie name : Штурм Білого дому / White House Down (2013) 720p-mini | video by ViSiON
Encoded date : UTC 2013-10-12 21:54:53
Writing application : mkvmerge v4.8.0 ('I Got The...') built on Aug 22 2011 13:16:28
Writing library : libebml v1.2.0 + libmatroska v1.1.0

Video
ID : 1
Format : AVC
Format/Info : Advanced Video Codec
Format profile : [email protected]
Format settings, CABAC : Yes
Format settings, ReFrames : 5 frames
Codec ID : V_MPEG4/ISO/AVC
Duration : 2h 11mn
Bit rate : 2 595 Kbps
Width : 1 280 pixels
Height : 534 pixels
Display aspect ratio : 2.35:1
Frame rate : 23.976 fps
Color space : YUV
Chroma subsampling : 4:2:0
Bit depth : 8 bits
Scan type : Progressive
Bits/(Pixel*Frame) : 0.158
Stream size : 2.33 GiB (78%)
Title : Штурм Білого дому / White House Down (2013) 720p-mini | video by ViSiON
Writing library : core 125 r2200 999b753
Encoding settings : cabac=1 / ref=5 / deblock=1:1:0 / analyse=0x3:0x113 / me=umh / subme=8 / psy=1 / psy_rd=1.00:0.15 / mixed_ref=1 / me_range=16 / chroma_me=1 / trellis=1 / 8x8dct=1 / cqm=0 / deadzone=21,11 / fast_pskip=1 / chroma_qp_offset=-1 / threads=12 / lookahead_threads=2 / sliced_threads=0 / nr=1 / decimate=1 / interlaced=0 / bluray_compat=0 / constrained_intra=0 / bframes=3 / b_pyramid=2 / b_adapt=2 / b_bias=0 / direct=3 / weightb=1 / open_gop=0 / weightp=2 / keyint=250 / keyint_min=23 / scenecut=40 / intra_refresh=0 / rc_lookahead=50 / rc=2pass / mbtree=1 / bitrate=2595 / ratetol=1.0 / qcomp=0.60 / qpmin=0 / qpmax=69 / qpstep=4 / cplxblur=20.0 / qblur=0.5 / ip_ratio=1.40 / aq=1:1.10

Audio
ID : 2
Format : AC-3
Format/Info : Audio Coding 3
Mode extension : CM (complete main)
Codec ID : A_AC3
Duration : 2h 11mn
Bit rate mode : Constant
Bit rate : 640 Kbps
Channel(s) : 6 channels
Channel positions : Front: L C R, Side: L R, LFE
Sampling rate : 48.0 KHz
Bit depth : 16 bits
Compression mode : Lossy
Stream size : 602 MiB (20%)
Title : Рідна мова (640 kbps) | Дубляж
Language : Ukrainian
Скріншоти





Походження: відеоряд взято з ріпу RG ViSiON
Особиста оцінка: 8 - мені сподобалося
Подяка за постер: Gelios


 Трекер:    Зареєстрований   

Завантажити / скачати фільм українською



відео для новачків



 Зареєстрований:   2013-10-13 00:22
 Розмір:   2.97 GB 
 Оцінка фільму:   9.5/10 (Голосів: 20)
   
Інші релізи
bot 
робот


З нами з: 30.09.07
Востаннє: 26.05.05
Повідомлень: 16052

2013-10-12 20:28  
Тему перенесено з Фільми в HD до форуму Анонси релізів


Drool

Drool 
VIP


З нами з: 17.04.10
Востаннє: 10.12.16
Повідомлень: 1270

2013-10-12 20:29  
Якщо встигне докачатись - буде або сьогодні після опівночі, або вже завтра вранці.
Також прошу висловитись стосовно бітрейту звукової доріжки - якщо перекодувати в 448 kbps - розмір буде 2/3 від DVD5, тобто 2,8 гектари. Якщо залишити доріжку без змін (640 kbps) вийде десь ~2,98 гектари. То що робити?

patriot2305 
Почесний гуртомівець


З нами з: 23.04.11
Востаннє: 11.12.16
Повідомлень: 4145

2013-10-12 20:43  
Drool написано:
То що робити?

На мою думку варто залишити 640

bot 
робот


З нами з: 30.09.07
Востаннє: 26.05.05
Повідомлень: 16052

2013-10-13 00:22  
Тему перенесено з Анонси релізів до форуму Фільми в HD


Drool

Ваш часовий пояс: GMT + 2 Години

Нова тема   Відповісти