Завантажити та скачати торренти українською


Зоряні Війни: Антологія / Star Wars: Anthology (1977-2005) 720p Ukr/Eng | Sub Eng

Нові коментарі

Нова тема   Відповісти
Сторінка:  1, 2  наступна
Автор Повідомлення
chaoscor 
Свій


З нами з: 17.10.10
Востаннє: 03.12.16
Повідомлень: 73

2013-10-08 21:47  
Зоряні Війни: Антологія / Star Wars: Anthology (1977-2005) 720p Ukr/Eng | Sub Eng

Зоряні Війни: Антологія / Star Wars: Anthology (1977-2005) 720p Ukr/Eng | Sub Eng


Жанр: пригодницький, фантастика, бойовик
Країна: США
Зоряні Війни: Епізод I - Прихована загроза / Star Wars: Episode I - The Phantom Menace (1999) 720p 2хUkr/Eng | Sub Eng

Зоряні Війни: Епізод I - Прихована загроза / Star Wars: Episode I - The Phantom Menace (1999) 720p 2хUkr/Eng | Sub Eng



Жанр: пригодницький, фантастика, бойовик
Країна: США



Кінокомпанія: Lucasfilm
Режисер: Джордж Лукас
Актори: Лайам Нісон, Еван МакГрегор, Наталі Портман, Джейк Ллойд, Ієн МакДайармід, Пернілла Аугуст, Теренс Стемп, Рей Парк, Семюел Л. Джексон, Ахмед Бест, Софія Коппола та інші.

Сюжет:
Мирна і процвітаюча планета Набу. Торгова федерація, не бажаючи платити податки, вступає в прямий конфлікт з королевою Амідалою, яка править планетою, що призводить до війни. На боці королеви і республіки - два лицарі-джедаї: вчитель і учень, Квай-Гон-Джин і Обі-Ван Кенобі ...


Тривалість: 02:16:10
Якість:
Відео:
кодек:
розмір кадру: 1280 х 544
бітрейт: 4907 кб/с

Аудіо # 1:
мова: українська
переклад: багатоголосий закадровий
кодек: 5.1
бітрейт: 448 кб/с

Джерело озвучення:


Аудіо # 2:
мова: українська
переклад: багатоголосий закадровий
кодек: 5.1
бітрейт: 448 кб/с

Джерело озвучення:


Аудіо # 3:
мова: англійська
переклад: оригінал
кодек: -ES 6.1
бітрейт: 1510 кб/с

Субтитри:
мова: англійська
тип: програмні (м'які)
формат: *.srt
MediaInfo
D:\тимчасова\Star Wars Anthology (1977-2005) 720p UkrEng Sub Eng\Star Wars Episode I - The Phantom Menace (1999) 720p UkrEng Sub Eng.mkv
General
Complete name : D:\тимчасова\Star Wars Anthology (1977-2005) 720p UkrEng Sub Eng\Star Wars Episode I - The Phantom Menace (1999) 720p UkrEng Sub Eng.mkv
Format : Matroska
File size : 7.10 GiB
Duration : 2h 16mn
Overall bit rate : 7 461 Kbps
Encoded date : UTC 2013-10-03 18:23:45
Writing application : mkvmerge v5.6.0 ('Kenya Kane') built on May 27 2012 16:44:04
Writing library : libebml v1.2.3 + libmatroska v1.3.0
Video #1
ID : 1
Format : AVC
Format/Info : Advanced Video Codec
Format profile : [email protected]
Format settings, CABAC : Yes
Format settings, ReFrames : 9 frames
Muxing mode : Container [email protected]
Codec ID : V_MPEG4/ISO/AVC
Duration : 2h 16mn
Bit rate : 4 907 Kbps
Width : 1 280 pixels
Height : 544 pixels
Display aspect ratio : 2.35:1
Frame rate : 23.976 fps
Color space : YUV
Chroma subsampling : 4:2:0
Bit depth : 8 bits
Scan type : Progressive
Bits/(Pixel*Frame) : 0.294
Stream size : 4.67 GiB (66%)
Title : Star Wars: Episode I - The Phantom Menace 1999 720p BluRay -ES
Writing library : core 116 r2019 9cc407d
Encoding settings : cabac=1 / ref=9 / deblock=1:-3:-3 / analyse=0x3:0x113 / me=umh / subme=9 / psy=1 / psy_rd=1.10:0.05 / mixed_ref=1 / me_range=24 / chroma_me=1 / trellis=2 / 8x8dct=1 / cqm=0 / deadzone=21,11 / fast_pskip=1 / chroma_qp_offset=-3 / threads=3 / sliced_threads=0 / nr=0 / decimate=0 / interlaced=0 / bluray_compat=0 / constrained_intra=0 / bframes=7 / b_pyramid=2 / b_adapt=2 / b_bias=0 / direct=3 / weightb=1 / open_gop=0 / weightp=2 / keyint=250 / keyint_min=23 / scenecut=40 / intra_refresh=0 / rc_lookahead=40 / rc=crf / mbtree=1 / crf=16.5 / qcomp=0.75 / qpmin=0 / qpmax=69 / qpstep=4 / ip_ratio=1.40 / aq=1:1.20
Language : English
Audio #2
ID : 2
Format : AC-3
Format/Info : Audio Coding 3
Mode extension : CM (complete main)
Codec ID : A_AC3
Duration : 2h 16mn
Bit rate mode : Constant
Bit rate : 448 Kbps
Channel(s) : 6 channels
Channel positions : Front: L C R, Side: L R, LFE
Sampling rate : 48.0 KHz
Bit depth : 16 bits
Video delay : 2s 750ms
Stream size : 437 MiB (6%)
Language : Ukrainian
Audio #3
ID : 3
Format : AC-3
Format/Info : Audio Coding 3
Mode extension : CM (complete main)
Codec ID : A_AC3
Duration : 2h 16mn
Bit rate mode : Constant
Bit rate : 448 Kbps
Channel(s) : 6 channels
Channel positions : Front: L C R, Side: L R, LFE
Sampling rate : 48.0 KHz
Bit depth : 16 bits
Video delay : 2s 750ms
Stream size : 437 MiB (6%)
Language : Ukrainian
Audio #4
ID : 4
Format :
Format/Info : Digital Theater Systems
Format profile : ES
Codec ID : A_DTS
Duration : 2h 16mn
Bit rate mode : Constant
Bit rate : 1 510 Kbps
Channel(s) : 7 channels
Channel positions : Front: L C R, Side: L R, Back: C, LFE
Sampling rate : 48.0 KHz
Bit depth : 24 bits
Stream size : 1.44 GiB (20%)
Title : English -ES 6.1 @ 1509 Kbps
Language : English
Text #5
ID : 5
Format : UTF-8
Codec ID : S_TEXT/UTF8
Codec ID/Info : UTF-8 Plain Text
Title : English Full
Language : English
Скріншоти


українські доріжки від Romario_O

Джерело: &
Зоряні війни: Епізод II - Атака клонів / Star Wars: Episode II - Attack of the Clones (2002) 720p Ukr/Eng | Sub Eng

Зоряні війни: Епізод II - Атака клонів / Star Wars: Episode II - Attack of the Clones (2002) 720p Ukr/Eng | Sub Eng



Жанр: пригодницький, фантастика, бойовик
Країна: США



Кінокомпанія: Lucasfilm
Режисер: Джордж Лукас
Актори: Еван МакГрегор, Наталі Портман, Хейден Крістенсен, Крістофер Лі, Семюел Л. Джексон, Френк Оз, Ієн МакДайармід та інші

Сюжет:
Після подій, описаних в `Епізоді I`, пройшло 10 років. Галактика - в сум'ятті. Тисячі зоряних систем загрожують вийти з складу Галактичної республіки. Назріває конфлікт, заздалегідь спланований могутніми, але поки ще не викритими силами, що веде до початку Клонічних войн і до занепаду республіки. Щоб протистояти загрозі вселенських масштабів, Верховний канцлер Палпатін домагається консолідації влади в республіці в своїх руках та віддає наказ про створення республіканської армії для підтримки нечисленної групи джедаїв в їх боротьбі з переважаючим противником.
У цей переломний момент доля знову зводить Енакіна та Падме. Вони вимушені вибирати між своїм боргом, честю і любов'ю, на яку вони не мають права. І вибір, який вони зроблять, переверне не тільки їх життя, але виявиться доленосним для всієї Галактики.


Тривалість: 02:22:27
Якість:
Відео:
кодек:
розмір кадру: 1280 х 544
бітрейт: 3616 кб/с

Аудіо # 1:
мова: українська
переклад: багатоголосий закадровий
кодек: 5.1
бітрейт: 448 кб/с

Джерело озвучення:


Аудіо # 2:
мова: англійська
переклад: оригінал
кодек: -ES 6.1
бітрейт: 1510 кб/с

Субтитри:
мова: англійська
тип: програмні (м'які)
формат: *.srt
MediaInfo
D:\тимчасова\Star Wars Anthology (1977-2005) 720p UkrEng Sub Eng\Star Wars Episode II - Attack of the Clones (2002) 720p UkrEng Sub Eng.mkv
General
Complete name : D:\тимчасова\Star Wars Anthology (1977-2005) 720p UkrEng Sub Eng\Star Wars Episode II - Attack of the Clones (2002) 720p UkrEng Sub Eng.mkv
Format : Matroska
File size : 5.66 GiB
Duration : 2h 22mn
Overall bit rate : 5 686 Kbps
Encoded date : UTC 2013-10-04 15:55:50
Writing application : mkvmerge v5.6.0 ('Kenya Kane') built on May 27 2012 16:44:04
Writing library : libebml v1.2.3 + libmatroska v1.3.0
Video #1
ID : 1
Format : AVC
Format/Info : Advanced Video Codec
Format profile : [email protected]
Format settings, CABAC : Yes
Format settings, ReFrames : 9 frames
Muxing mode : Container [email protected]
Codec ID : V_MPEG4/ISO/AVC
Duration : 2h 22mn
Bit rate : 3 616 Kbps
Width : 1 280 pixels
Height : 544 pixels
Display aspect ratio : 2.35:1
Frame rate : 23.976 fps
Color space : YUV
Chroma subsampling : 4:2:0
Bit depth : 8 bits
Scan type : Progressive
Bits/(Pixel*Frame) : 0.217
Stream size : 3.60 GiB (64%)
Title : Star Wars: Episode II - Attack of the Clones 2002 720p BluRay -ES
Writing library : core 116 r2019 9cc407d
Encoding settings : cabac=1 / ref=9 / deblock=1:-3:-3 / analyse=0x3:0x113 / me=umh / subme=9 / psy=1 / psy_rd=1.10:0.05 / mixed_ref=1 / me_range=24 / chroma_me=1 / trellis=2 / 8x8dct=1 / cqm=0 / deadzone=21,11 / fast_pskip=1 / chroma_qp_offset=-3 / threads=3 / sliced_threads=0 / nr=0 / decimate=0 / interlaced=0 / bluray_compat=0 / constrained_intra=0 / bframes=7 / b_pyramid=2 / b_adapt=2 / b_bias=0 / direct=3 / weightb=1 / open_gop=0 / weightp=2 / keyint=250 / keyint_min=23 / scenecut=40 / intra_refresh=0 / rc_lookahead=40 / rc=crf / mbtree=1 / crf=16.5 / qcomp=0.75 / qpmin=0 / qpmax=69 / qpstep=4 / ip_ratio=1.40 / aq=1:1.20
Language : English
Audio #2
ID : 2
Format : AC-3
Format/Info : Audio Coding 3
Mode extension : CM (complete main)
Codec ID : A_AC3
Duration : 2h 22mn
Bit rate mode : Constant
Bit rate : 448 Kbps
Channel(s) : 6 channels
Channel positions : Front: L C R, Side: L R, LFE
Sampling rate : 48.0 KHz
Bit depth : 16 bits
Video delay : 1s 250ms
Stream size : 457 MiB (8%)
Language : Ukrainian
Audio #3
ID : 3
Format :
Format/Info : Digital Theater Systems
Format profile : ES
Codec ID : A_DTS
Duration : 2h 22mn
Bit rate mode : Constant
Bit rate : 1 510 Kbps
Channel(s) : 7 channels
Channel positions : Front: L C R, Side: L R, Back: C, LFE
Sampling rate : 48.0 KHz
Bit depth : 24 bits
Stream size : 1.50 GiB (27%)
Title : English -ES 6.1 @ 1509 Kbps
Language : English
Text #4
ID : 4
Format : UTF-8
Codec ID : S_TEXT/UTF8
Codec ID/Info : UTF-8 Plain Text
Title : English Full
Language : English
Скріншоти


українські доріжки від Romario_O

Джерело: &
Зоряні війни: Епізод III - Помста сітхів / Star Wars: Episode III - Revenge of the Sith (2005) 720p Ukr/Eng | Sub Eng

Зоряні війни: Епізод III - Помста сітхів / Star Wars: Episode III - Revenge of the Sith (2005) 720p Ukr/Eng



Жанр: пригодницький, фантастика, бойовик
Країна: США



Кінокомпанія: Lucasfilm
Режисер: Джордж Лукас
Актори: Еван МакГрегор, Наталі Портман, Хейден Крістенсен, Семюел Л. Джексон, Френк Оз, Ієн МакДайармід, Джиммі Смітс та інші

Сюжет:
Після трьох довгих років жорстоких битв, Війна Клонів наближується до завершення. На Корусанті посилюється влада Канцлера Палпатіна. Самозакохана і обмежена вузькістю традицій рада джедаїв не бажає помічати ні згущення темних хмар у себе над головою, ні нової потужної сили в особі Анакіна Скайвокера. Своєю недовірою, зневагою і спробою втиснути його в рамки посередності, вони штовхають його на контакти з темною стороною сили . Владика сидх обіцяє виправити помилку джедаїв, які дали померти матері Анакіна і всю ту силу, яку могла мати світла сторона, набуває темна


Тривалість: 02:20:05
Якість:
Відео:
кодек:
розмір кадру: 1280 х 544
бітрейт: 5842 кб/с

Аудіо # 1:
мова: українська
переклад: багатоголосий закадровий
кодек: 5.1
бітрейт: 448 кб/с

Джерело озвучення:


Аудіо # 2:
мова: англійська
переклад: оригінал
кодек: -ES 6.1
бітрейт: 1510 кб/с

Субтитри:
мова: англійська
тип: програмні (м'які)
формат: *.srt
MediaInfo
D:\тимчасова\Star Wars Anthology (1977-2005) 720p UkrEng Sub Eng\Star Wars Episode III - Revenge of the Sith (2005) 720p UkrEng Sub Eng.mkv
General
Complete name : D:\тимчасова\Star Wars Anthology (1977-2005) 720p UkrEng Sub Eng\Star Wars Episode III - Revenge of the Sith (2005) 720p UkrEng Sub Eng.mkv
Format : Matroska
File size : 7.79 GiB
Duration : 2h 20mn
Overall bit rate : 7 958 Kbps
Encoded date : UTC 2013-10-08 18:28:33
Writing application : mkvmerge v5.6.0 ('Kenya Kane') built on May 27 2012 16:44:04
Writing library : libebml v1.2.3 + libmatroska v1.3.0
Video #1
ID : 1
Format : AVC
Format/Info : Advanced Video Codec
Format profile : [email protected]
Format settings, CABAC : Yes
Format settings, ReFrames : 9 frames
Muxing mode : Container [email protected]
Codec ID : V_MPEG4/ISO/AVC
Duration : 2h 20mn
Bit rate : 5 842 Kbps
Width : 1 280 pixels
Height : 544 pixels
Display aspect ratio : 2.35:1
Frame rate : 23.976 fps
Color space : YUV
Chroma subsampling : 4:2:0
Bit depth : 8 bits
Scan type : Progressive
Bits/(Pixel*Frame) : 0.350
Stream size : 5.72 GiB (73%)
Title : Star Wars: Episode III - Revenge of the Sith 2005 720p BluRay -ES
Writing library : core 116 r2019 9cc407d
Encoding settings : cabac=1 / ref=9 / deblock=1:-3:-3 / analyse=0x3:0x113 / me=umh / subme=9 / psy=1 / psy_rd=1.10:0.00 / mixed_ref=1 / me_range=24 / chroma_me=1 / trellis=2 / 8x8dct=1 / cqm=0 / deadzone=21,11 / fast_pskip=1 / chroma_qp_offset=-2 / threads=3 / sliced_threads=0 / nr=0 / decimate=0 / interlaced=0 / bluray_compat=0 / constrained_intra=0 / bframes=6 / b_pyramid=2 / b_adapt=2 / b_bias=0 / direct=3 / weightb=1 / open_gop=0 / weightp=2 / keyint=250 / keyint_min=23 / scenecut=40 / intra_refresh=0 / rc_lookahead=40 / rc=crf / mbtree=1 / crf=16.2 / qcomp=0.75 / qpmin=0 / qpmax=69 / qpstep=4 / ip_ratio=1.40 / aq=1:0.90
Language : English
Audio #2
ID : 2
Format : AC-3
Format/Info : Audio Coding 3
Mode extension : CM (complete main)
Codec ID : A_AC3
Duration : 2h 20mn
Bit rate mode : Constant
Bit rate : 448 Kbps
Channel(s) : 6 channels
Channel positions : Front: L C R, Side: L R, LFE
Sampling rate : 48.0 KHz
Bit depth : 16 bits
Video delay : 2s 750ms
Stream size : 449 MiB (6%)
Language : Ukrainian
Audio #3
ID : 3
Format :
Format/Info : Digital Theater Systems
Format profile : ES
Codec ID : A_DTS
Duration : 2h 20mn
Bit rate mode : Constant
Bit rate : 1 510 Kbps
Channel(s) : 7 channels
Channel positions : Front: L C R, Side: L R, Back: C, LFE
Sampling rate : 48.0 KHz
Bit depth : 24 bits
Stream size : 1.48 GiB (19%)
Title : English -ES 6.1 @ 1509 Kbps
Language : English
Text #4
ID : 4
Format : UTF-8
Codec ID : S_TEXT/UTF8
Codec ID/Info : UTF-8 Plain Text
Title : English Full
Language : English
Скріншоти


українські доріжки від Romario_O

Джерело: &
Зоряні війни: Епізод IV - Нова надія / Star Wars: Episode IV - A New Hope (1977) 720p 2хUkr/Eng | Sub Eng

Зоряні війни: Епізод IV - Нова надія / Star Wars: Episode IV - A New Hope (1977) 720p 2хUkr/Eng | Sub Eng



Жанр: пригодницький, фантастика, бойовик
Країна: США



Кінокомпанія: Lucasfilm
Режисер: Джордж Лукас
Актори: Марк Хемілл, Гаррісон Форд, Керрі Фішер, Пітер Кашінг, Алек Гіннесс, Ентоні Деніелс, Кенні Бейкер, Девід Проуз, Пітер Мейхью, Джеймс Ерл Джонс та інші.

Сюжет:
Татуїн. Планета-пустеля. Вже постарілий лицар Джедай Обі-Ван Кенобі рятує молодого Люка Скайвокера, коли той намагається відшукати зниклого дроїда. З цієї миті Люк усвідомлює своє дійсне призначення: він один з лицарів-Джедаїв. Тоді як громадянська війна охопила галактику, а війська повстанців ведуть бої проти злих сил Імператора, до Люка і Обі-Вану приєднується відчайдушний пілот-найманець Хан Соло, і у супроводі двох дроїдов, R2D2 і C-3PO, цей незвичайний загін вирушає на пошуки предводителя повстанців - принцеси Леї. Героїв чекає відчайдушна сутичка із страхітливим Дартом Вейдером - правою рукою Імператора та його секретною зброєю - «Зіркою Смерті»...


Тривалість: 02:04:44
Якість:
Відео:
кодек:
розмір кадру: 1280 х 546
бітрейт: 8000 кб/с

Аудіо # 1:
мова: українська
переклад: багатоголосий закадровий
кодек: 5.1
бітрейт: 448 кб/с

Джерело озвучення:


Аудіо # 2:
мова: українська
переклад: багатоголосий закадровий
кодек: 5.1
бітрейт: 448 кб/с

Джерело озвучення:


Аудіо # 3:
мова: англійська
переклад: оригінал
кодек: -ES 6.1
бітрейт: 1510 кб/с

Субтитри:
мова: англійська
тип: програмні (м'які)
формат: *.srt
MediaInfo
D:\тимчасова\Star Wars Anthology (1977-2005) 720p UkrEng Sub Eng\Star Wars Episode IV - A New Hope (1977) 720p UkrEng Sub Eng.mkv
General
Complete name : D:\тимчасова\Star Wars Anthology (1977-2005) 720p UkrEng Sub Eng\Star Wars Episode IV - A New Hope (1977) 720p UkrEng Sub Eng.mkv
Format : Matroska
File size : 9.07 GiB
Duration : 2h 4mn
Overall bit rate : 10.4 Mbps
Encoded date : UTC 2013-10-05 12:56:47
Writing application : mkvmerge v5.6.0 ('Kenya Kane') built on May 27 2012 16:44:04
Writing library : libebml v1.2.3 + libmatroska v1.3.0
Cover : Yes
Video #1
ID : 1
Format : AVC
Format/Info : Advanced Video Codec
Format profile : [email protected]
Format settings, CABAC : Yes
Format settings, ReFrames : 11 frames
Muxing mode : Container [email protected]
Codec ID : V_MPEG4/ISO/AVC
Duration : 2h 4mn
Bit rate : 8 000 Kbps
Width : 1 280 pixels
Height : 546 pixels
Display aspect ratio : 2.35:1
Frame rate : 23.976 fps
Color space : YUV
Chroma subsampling : 4:2:0
Bit depth : 8 bits
Scan type : Progressive
Bits/(Pixel*Frame) : 0.477
Stream size : 6.79 GiB (75%)
Title : Star Wars: Episode IV - A New Hope 1977 720p BluRay -ES
Writing library : core 116 r2074 2641b9e
Encoding settings : cabac=1 / ref=11 / deblock=1:-3:-3 / analyse=0x3:0x133 / me=tesa / subme=10 / psy=1 / psy_rd=1.10:0.10 / mixed_ref=1 / me_range=32 / chroma_me=1 / trellis=2 / 8x8dct=1 / cqm=0 / deadzone=21,11 / fast_pskip=0 / chroma_qp_offset=-3 / threads=12 / sliced_threads=0 / nr=0 / decimate=0 / interlaced=0 / bluray_compat=0 / constrained_intra=0 / bframes=7 / b_pyramid=2 / b_adapt=2 / b_bias=0 / direct=3 / weightb=1 / open_gop=0 / weightp=2 / keyint=250 / keyint_min=23 / scenecut=40 / intra_refresh=0 / rc_lookahead=150 / rc=2pass / mbtree=1 / bitrate=8000 / ratetol=1.0 / qcomp=0.75 / qpmin=0 / qpmax=69 / qpstep=4 / cplxblur=20.0 / qblur=0.5 / vbv_maxrate=50000 / vbv_bufsize=62500 / nal_hrd=none / ip_ratio=1.40 / aq=2:0.60
Language : English
Matrix coefficients : BT.709-5, BT.1361, IEC 61966-2-4 709, SMPTE RP177
Audio #2
ID : 2
Format : AC-3
Format/Info : Audio Coding 3
Mode extension : CM (complete main)
Codec ID : A_AC3
Duration : 2h 4mn
Bit rate mode : Constant
Bit rate : 448 Kbps
Channel(s) : 6 channels
Channel positions : Front: L C R, Side: L R, LFE
Sampling rate : 48.0 KHz
Bit depth : 16 bits
Video delay : 2s 0ms
Stream size : 400 MiB (4%)
Title : 1+1
Language : Ukrainian
Audio #3
ID : 3
Format : AC-3
Format/Info : Audio Coding 3
Mode extension : CM (complete main)
Codec ID : A_AC3
Duration : 2h 4mn
Bit rate mode : Constant
Bit rate : 448 Kbps
Channel(s) : 6 channels
Channel positions : Front: L C R, Side: L R, LFE
Sampling rate : 48.0 KHz
Bit depth : 16 bits
Video delay : 2s 0ms
Stream size : 400 MiB (4%)
Title : ICTV
Language : Ukrainian
Audio #4
ID : 4
Format :
Format/Info : Digital Theater Systems
Format profile : ES
Codec ID : A_DTS
Duration : 2h 4mn
Bit rate mode : Constant
Bit rate : 1 510 Kbps
Channel(s) : 7 channels
Channel positions : Front: L C R, Side: L R, Back: C, LFE
Sampling rate : 48.0 KHz
Bit depth : 24 bits
Stream size : 1.32 GiB (15%)
Title : English -ES 6.1 @ 1509 Kbps
Language : English
Text #5
ID : 5
Format : UTF-8
Codec ID : S_TEXT/UTF8
Codec ID/Info : UTF-8 Plain Text
Title : English Full
Language : English
Скріншоти


українські доріжки від Romario_O

Джерело: &
Зоряні війни: Епізод V - Імперія завдає удару у відповідь / Star Wars: Episode V - The Empire Strikes Back (1980) 720p 2хUkr/Eng | Sub Eng

Зоряні війни: Епізод V - Імперія завдає удару у відповідь / Star Wars: Episode V - The Empire Strikes Back (1980) 720p 2хUkr/Eng | Sub Eng



Жанр: пригодницький, фантастика, бойовик
Країна: США



Кінокомпанія: Lucasfilm
Режисер: Джордж Лукас
Актори: Марк Хемілл, Гаррісон Форд, Керрі Фішер, Біллі Ді Уільямс, Девід Праус , Пітер Мейх'ю, Ентоні Деніелс та інші.

Сюжет:
Боротьба за Галактику загострюється в п'ятому епізоді космічної саги. Війська Імператора починають масову атаку на повстанців та їх союзників.
Хан Соло та принцеса Лея ховаються в Надхмарному Місті, в якому їх і захоплює Дарт Вейдер, тоді як Люк Скайвокер знаходиться на таємничій планеті джунглів Дагобар. Там Майстер - джедай Йода навчає молодого лицаря навичкам отримання Сили. Люк навіть не припускає, як скоро йому доведеться скористатися знаннями старого Майстра: попереду битва з переважаючими силами Імператора і смертельний поєдинок з Дартом Вейдером...


Тривалість: 02:07:21
Якість:
Відео:
кодек:
розмір кадру: 1280 х 546
бітрейт: 7500 кб/с

Аудіо # 1:
мова: українська
переклад: багатоголосий закадровий
кодек: 5.1
бітрейт: 448 кб/с

Джерело озвучення:


Аудіо # 2:
мова: українська
переклад: багатоголосий закадровий
кодек: 5.1
бітрейт: 448 кб/с

Джерело озвучення:


Аудіо # 3:
мова: англійська
переклад: оригінал
кодек: -ES 6.1
бітрейт: 1510 кб/с

Субтитри:
мова: англійська
тип: програмні (м'які)
формат: *.srt
MediaInfo
D:\тимчасова\Star Wars Anthology (1977-2005) 720p UkrEng Sub Eng\Star Wars Episode V - The Empire Strikes Back (1980) 720p UkrEng Sub Eng.mkv
General
Complete name : D:\тимчасова\Star Wars Anthology (1977-2005) 720p UkrEng Sub Eng\Star Wars Episode V - The Empire Strikes Back (1980) 720p UkrEng Sub Eng.mkv
Format : Matroska
File size : 8.81 GiB
Duration : 2h 7mn
Overall bit rate : 9 899 Kbps
Encoded date : UTC 2013-10-05 19:17:13
Writing application : mkvmerge v5.6.0 ('Kenya Kane') built on May 27 2012 16:44:04
Writing library : libebml v1.2.3 + libmatroska v1.3.0
Video #1
ID : 1
Format : AVC
Format/Info : Advanced Video Codec
Format profile : [email protected]
Format settings, CABAC : Yes
Format settings, ReFrames : 11 frames
Muxing mode : Container [email protected]
Codec ID : V_MPEG4/ISO/AVC
Duration : 2h 7mn
Bit rate : 7 500 Kbps
Width : 1 280 pixels
Height : 546 pixels
Display aspect ratio : 2.35:1
Frame rate : 23.976 fps
Color space : YUV
Chroma subsampling : 4:2:0
Bit depth : 8 bits
Scan type : Progressive
Bits/(Pixel*Frame) : 0.448
Stream size : 6.50 GiB (74%)
Title : Star Wars: Episode V - The Empire Strikes 1980 720p BluRay -ES
Writing library : core 116 r2074 2641b9e
Encoding settings : cabac=1 / ref=11 / deblock=1:-3:-3 / analyse=0x3:0x133 / me=tesa / subme=10 / psy=1 / psy_rd=1.10:0.10 / mixed_ref=1 / me_range=32 / chroma_me=1 / trellis=2 / 8x8dct=1 / cqm=0 / deadzone=21,11 / fast_pskip=0 / chroma_qp_offset=-3 / threads=12 / sliced_threads=0 / nr=0 / decimate=0 / interlaced=0 / bluray_compat=0 / constrained_intra=0 / bframes=7 / b_pyramid=2 / b_adapt=2 / b_bias=0 / direct=3 / weightb=1 / open_gop=0 / weightp=2 / keyint=250 / keyint_min=23 / scenecut=40 / intra_refresh=0 / rc_lookahead=150 / rc=2pass / mbtree=1 / bitrate=7500 / ratetol=1.0 / qcomp=0.75 / qpmin=0 / qpmax=69 / qpstep=4 / cplxblur=20.0 / qblur=0.5 / vbv_maxrate=50000 / vbv_bufsize=62500 / nal_hrd=none / ip_ratio=1.40 / aq=1:0.60
Language : English
Matrix coefficients : BT.709-5, BT.1361, IEC 61966-2-4 709, SMPTE RP177
Audio #2
ID : 2
Format : AC-3
Format/Info : Audio Coding 3
Mode extension : CM (complete main)
Codec ID : A_AC3
Duration : 2h 7mn
Bit rate mode : Constant
Bit rate : 448 Kbps
Channel(s) : 6 channels
Channel positions : Front: L C R, Side: L R, LFE
Sampling rate : 48.0 KHz
Bit depth : 16 bits
Video delay : 1s 500ms
Stream size : 408 MiB (5%)
Language : Ukrainian
Audio #3
ID : 3
Format : AC-3
Format/Info : Audio Coding 3
Mode extension : CM (complete main)
Codec ID : A_AC3
Duration : 2h 7mn
Bit rate mode : Constant
Bit rate : 448 Kbps
Channel(s) : 6 channels
Channel positions : Front: L C R, Side: L R, LFE
Sampling rate : 48.0 KHz
Bit depth : 16 bits
Video delay : 1s 500ms
Stream size : 408 MiB (5%)
Language : Ukrainian
Audio #4
ID : 4
Format :
Format/Info : Digital Theater Systems
Format profile : ES
Codec ID : A_DTS
Duration : 2h 7mn
Bit rate mode : Constant
Bit rate : 1 510 Kbps
Channel(s) : 7 channels
Channel positions : Front: L C R, Side: L R, Back: C, LFE
Sampling rate : 48.0 KHz
Bit depth : 24 bits
Stream size : 1.34 GiB (15%)
Title : English -ES 6.1 @ 1509 Kbps
Language : English
Text #5
ID : 5
Format : UTF-8
Codec ID : S_TEXT/UTF8
Codec ID/Info : UTF-8 Plain Text
Title : English Full
Language : English
Скріншоти


українські доріжки від Romario_O

Джерело: &
Зоряні війни: Епізод VI - Повернення Джедая / Star Wars: Episode VI - Return of the Jedi (1983) 720p 2хUkr/Eng | Sub Eng

Зоряні війни: Епізод VI - Повернення Джедая / Star Wars: Episode VI - Return of the Jedi (1983) 720p 2хUkr/Eng | Sub Eng



Жанр: пригодницький, фантастика, бойовик
Країна: США



Кінокомпанія: Lucasfilm
Режисер: Джордж Лукас
Актори: Марк Хемілл, Харрісон Форд, Керрі Фішер, Біллі Ді Уільямс, Ентоні Деніелс, Пітер Мейхью, Себастьян Шоу, Джеймс Ерл Джонс, Девід Праус та інші.
Сюжет:
В заключному шостому епізоді «Зоряних війн» Дарт Вейдер створює другу «Зірку Смерті». Він об'єднує всі сили зла, щоб за допомогою цієї смертоносної зброї нанести останній нищівний удар по повстанцях та їх союзникам.
Люк Скайвокер разом з принцесою Леєю і вірними дроїдамі R2D2 і C-3PO відправляється рятувати свого друга Хана Соло, який потрапив в полон до огидного Джабби Хатту - могутньго володаря злочинців.
Повстанці висаджуються на планету Ендор, щоб звідти разом з Люком та його загоном зробити останню атаку на Імперський флот, атаку, від якої залежить доля Галактики. У цьому епізоді Люк Скайвокер та Дарт Вейдер зустрічаються в останній раз ... бо з поєдинку між батьком та сином живим вийде тільки один ...


Тривалість: 02:14:47
Якість:
Відео:
кодек:
розмір кадру: 1280 х 546
бітрейт: 9000 кб/с

Аудіо # 1:
мова: українська
переклад: багатоголосий закадровий
кодек: 5.1
бітрейт: 448 кб/с

Джерело озвучення:


Аудіо # 2:
мова: українська
переклад: багатоголосий закадровий
кодек: 5.1
бітрейт: 448 кб/с

Джерело озвучення:


Аудіо # 3:
мова: англійська
переклад: оригінал
кодек: -ES 6.1
бітрейт: 1510 кб/с

Субтитри:
мова: англійська
тип: програмні (м'які)
формат: *.srt
MediaInfo
D:\тимчасова\Star Wars Anthology (1977-2005) 720p UkrEng Sub Eng\Star Wars Episode VI - Return of the Jedi (1983) 720p. UkrEng Sub Eng.mkv
General
Complete name : D:\тимчасова\Star Wars Anthology (1977-2005) 720p UkrEng Sub Eng\Star Wars Episode VI - Return of the Jedi (1983) 720p. UkrEng Sub Eng.mkv
Format : Matroska
File size : 10.7 GiB
Duration : 2h 14mn
Overall bit rate : 11.4 Mbps
Encoded date : UTC 2013-10-05 21:18:54
Writing application : mkvmerge v5.6.0 ('Kenya Kane') built on May 27 2012 16:44:04
Writing library : libebml v1.2.3 + libmatroska v1.3.0
Cover : Yes
Video #1
ID : 1
Format : AVC
Format/Info : Advanced Video Codec
Format profile : [email protected]
Format settings, CABAC : Yes
Format settings, ReFrames : 11 frames
Muxing mode : Container [email protected]
Codec ID : V_MPEG4/ISO/AVC
Duration : 2h 14mn
Bit rate : 9 000 Kbps
Width : 1 280 pixels
Height : 546 pixels
Display aspect ratio : 2.35:1
Frame rate : 23.976 fps
Color space : YUV
Chroma subsampling : 4:2:0
Bit depth : 8 bits
Scan type : Progressive
Bits/(Pixel*Frame) : 0.537
Stream size : 8.26 GiB (77%)
Title : Star Wars: Episode VI - Return of the Jedi 1983 720p BluRay -ES
Writing library : core 116 r2074 2641b9e
Encoding settings : cabac=1 / ref=11 / deblock=1:-3:-3 / analyse=0x3:0x133 / me=tesa / subme=10 / psy=1 / psy_rd=1.10:0.10 / mixed_ref=1 / me_range=32 / chroma_me=1 / trellis=2 / 8x8dct=1 / cqm=0 / deadzone=21,11 / fast_pskip=0 / chroma_qp_offset=-3 / threads=12 / sliced_threads=0 / nr=0 / decimate=0 / interlaced=0 / bluray_compat=0 / constrained_intra=0 / bframes=7 / b_pyramid=2 / b_adapt=2 / b_bias=0 / direct=3 / weightb=1 / open_gop=0 / weightp=2 / keyint=250 / keyint_min=23 / scenecut=40 / intra_refresh=0 / rc_lookahead=150 / rc=2pass / mbtree=1 / bitrate=9000 / ratetol=1.0 / qcomp=0.75 / qpmin=0 / qpmax=69 / qpstep=4 / cplxblur=20.0 / qblur=0.5 / vbv_maxrate=50000 / vbv_bufsize=62500 / nal_hrd=none / ip_ratio=1.40 / aq=1:0.60
Language : English
Matrix coefficients : BT.709-5, BT.1361, IEC 61966-2-4 709, SMPTE RP177
Audio #2
ID : 2
Format : AC-3
Format/Info : Audio Coding 3
Mode extension : CM (complete main)
Codec ID : A_AC3
Duration : 2h 14mn
Bit rate mode : Constant
Bit rate : 448 Kbps
Channel(s) : 6 channels
Channel positions : Front: L C R, Side: L R, LFE
Sampling rate : 48.0 KHz
Bit depth : 16 bits
Video delay : 1s 750ms
Stream size : 432 MiB (4%)
Language : Ukrainian
Audio #3
ID : 3
Format : AC-3
Format/Info : Audio Coding 3
Mode extension : CM (complete main)
Codec ID : A_AC3
Duration : 2h 14mn
Bit rate mode : Constant
Bit rate : 448 Kbps
Channel(s) : 6 channels
Channel positions : Front: L C R, Side: L R, LFE
Sampling rate : 48.0 KHz
Bit depth : 16 bits
Video delay : 1s 750ms
Stream size : 432 MiB (4%)
Language : Ukrainian
Audio #4
ID : 4
Format :
Format/Info : Digital Theater Systems
Format profile : ES
Codec ID : A_DTS
Duration : 2h 14mn
Bit rate mode : Constant
Bit rate : 1 510 Kbps
Channel(s) : 7 channels
Channel positions : Front: L C R, Side: L R, Back: C, LFE
Sampling rate : 48.0 KHz
Bit depth : 24 bits
Stream size : 1.42 GiB (13%)
Title : English -ES 6.1 @ 1509 Kbps
Language : English
Text #5
ID : 5
Format : UTF-8
Codec ID : S_TEXT/UTF8
Codec ID/Info : UTF-8 Plain Text
Title : English Full
Language : English
Скріншоти


українські доріжки від Romario_O

Джерело: &
українські доріжки від Romario_O

Джерело: &
Особиста оцінка: 10 - без зайвих вагань рекомендую всім!


Срібний реліз (на рейтинг впливає 50% завантаженого)
 Трекер:    Зареєстрований   

Завантажити / скачати фільм українською



відео для новачків



 Зареєстрований:   2013-10-08 21:47
 Розмір:   49.17 GB 
 Оцінка фільму:   9.8/10 (Голосів: 164)
   
Інші релізи
dima77777 
Поважний учасник


З нами з: 28.11.12
Востаннє: 08.12.16
Повідомлень: 198

2013-10-08 21:56  
Оце просто класс! Дуже вам дякую за цей реліз,мій найулюбленіший фільм!!!
zeron 
Відео Гуртом - підтримка та поширення
Відео Гуртом - підтримка та поширення


З нами з: 07.05.08
Востаннє: 08.12.16
Повідомлень: 83

2013-10-08 22:40  
Дуже дякую! Давно чекав такого релізу, обов'язково скачаю, як буде місце.
Байда Віктор 
Новенький


З нами з: 21.03.13
Востаннє: 06.12.16
Повідомлень: 18

2013-10-08 22:48  
Це просто бомба!!! Велике дякую!!!
NeetScrool 
Відео Гуртом - фільмокрай
Відео Гуртом - фільмокрай


З нами з: 10.01.13
Востаннє: 08.12.16
Повідомлень: 2219

2013-10-08 23:46  
більшість постерів мертва.
Chornyj100 
Новенький


З нами з: 21.10.09
Востаннє: 08.12.16
Повідомлень: 2

2013-10-09 21:10  
В якій послідовності дивитися епізоди? По даті виходу в прокат, чи в порядку зростання епізодів?
omm 
Відео Гуртом - фільмокрай
Відео Гуртом - фільмокрай


З нами з: 12.06.12
Востаннє: 08.12.16
Повідомлень: 2066

2013-10-09 22:03  
Chornyj100
я б порадив дивитися у порядку в виходу, тобто 4,5,6,1,2,3. Просто розуміти і правильно сприймати епізоди 1-3 як трилогію-передісторію 4-6 частин. Враження будуть значно кращі.

bergamo 
Новенький


З нами з: 30.01.13
Востаннє: 08.12.16
Повідомлень: 3

2013-10-10 23:01  
xoroshiy film
Оповідач 
Поважний учасник


З нами з: 13.03.11
Востаннє: 08.12.16
Повідомлень: 196

2013-10-11 23:19  
Дуже дякую !
andriy555 
Частий відвідувач


З нами з: 11.04.11
Востаннє: 04.12.16
Повідомлень: 25

2013-12-10 22:38  
Класні фільми, почерпнув багато нового для себе, цікава філософія, особливо вислови майстра Йоди. Спочатку думав, що зараз це вже не актуально, але графіка виглядає на рівні навіть сьогоднію Мені справді сподобалось, адже наявний глибокий підтекст.
Казим 
Частий відвідувач


З нами з: 18.01.09
Востаннє: 08.12.16
Повідомлень: 26

2014-08-18 16:26  
вразило. немов про мене. дивився, немов став учаснико тих подій...
santialeks 
Свій


З нами з: 22.04.12
Востаннє: 08.12.16
Повідомлень: 73

2014-11-16 22:57  
Бачив багато разів мовою окупантів. От вчора на 2+2 був 3 епізод. Сьогодні передивився всі частини рідною мовою. Дякую автору за реліз. Рекомендую дивитися по порядку епізодів, щоб зрозуміти дану антологію.
Pinguin 
Поважний учасник


З нами з: 08.04.12
Востаннє: 08.12.16
Повідомлень: 190

2014-11-29 14:43  
Чекаємо продовження:

NBA 
Новенький


З нами з: 19.09.12
Востаннє: 08.12.16
Повідомлень: 17

2014-12-02 16:59  
а буде антологія в якості avi
Pinguin 
Поважний учасник


З нами з: 08.04.12
Востаннє: 08.12.16
Повідомлень: 190

2014-12-02 19:56  
1009 
Поважний учасник


З нами з: 02.09.14
Востаннє: 08.12.16
Повідомлень: 231

2015-03-11 17:52  
Це мій найулюбленіший фільм!!!
Я фанат STAR WARS Rolleyes (4)

NadyBear 
Новенький


З нами з: 12.01.12
Востаннє: 31.08.16
Повідомлень: 7

2015-03-21 22:46  
Можливо я чогось не розумію - але 5-й епізод повністю на англійській
Mahasun 
Новенький


З нами з: 09.06.08
Востаннє: 06.12.16
Повідомлень: 21

2015-03-28 19:10  
NadyBear
Просто клацніть на екрані правою кнопкою мишки під час перегляду фільму, або на паузі, знайдіть у меню пункт "аудіо", чи подібний, і зазирніть туди. Там має бути можливість вибрати українську мову.

mutomba 
Частий відвідувач


З нами з: 20.10.13
Востаннє: 08.12.16
Повідомлень: 39

2015-04-14 21:00  
Передивився в порядку 1-6... отримав массу вражень! Супер!
Дякую за реліз!
Доречі, дивився інтервью із Лукасом... як зрозумів компанія дісней викупила права на продовження зоряних війн.. і Лукас сказав, що є сценарії на 7-8-9 серії.

C4ebyrek 
Новенький


З нами з: 01.01.13
Востаннє: 07.12.16
Повідомлень: 18

2015-06-14 19:43  
Спасибі!!!)
Дуже хороше кіно!
Буду передивлятися 4 раз)

haid 
Новенький


З нами з: 03.02.09
Востаннє: 31.07.15
Повідомлень: 6

2015-07-31 12:24  
ДЯКУЮ! Чекаємо 7-й епізод!!!!
1009 
Поважний учасник


З нами з: 02.09.14
Востаннє: 08.12.16
Повідомлень: 231

2015-07-31 13:56  
А хтось знає інформацію про 7-й епізод?
don pedro 
Попереджень: 1
Попереджень: 1 


З нами з: 29.06.11
Востаннє: 08.12.16
Повідомлень: 8766

2015-07-31 14:41  
C4ebyrek 
Новенький


З нами з: 01.01.13
Востаннє: 07.12.16
Повідомлень: 18

2015-09-06 10:49  
Класика. Це, напевно, шедевр!)
FilmDirector 
Свій


З нами з: 21.10.11
Востаннє: 08.12.16
Повідомлень: 94

2015-11-06 03:40  
Дуже жаль, що немає релізу з українськими субтитрами Sad (1)
kiboal 
Новенький


З нами з: 25.12.14
Востаннє: 08.12.16
Повідомлень: 5

2015-11-25 17:19  
буду стояти до 17 грудня на роздачі, так що поспішіть подивится всі 6 частин до вихода 7 сьомой частини
goser 
Частий відвідувач


З нами з: 19.12.07
Востаннє: 28.11.16
Повідомлень: 41

2015-12-12 14:13  
Дякую за всі серії, дітям буде цікаво подивитись.
Також допоможу на роздачі.

andriy2804 
Новенький


З нами з: 31.05.10
Востаннє: 17.11.16
Повідомлень: 1

2015-12-18 18:00  
ну як вам сьома частина ?
X_X_X_7_7_7 
Новенький


З нами з: 18.05.11
Востаннє: 05.07.16
Повідомлень: 1

2015-12-19 09:23  
БОМБА!!!
wuzicka 
Новенький


З нами з: 08.03.10
Востаннє: 07.12.16
Повідомлень: 7

2015-12-20 18:58  
Чи не міг би хто викласти українські доріжки окремо?
Ваш часовий пояс: GMT + 2 Години

Нова тема   Відповісти Сторінка:  1, 2  наступна