Завантажити та скачати торренти українською


Всесвітня Війна Z / World War Z (2013) 720p Ukr/Eng | Sub Ukr/Eng

Нові коментарі

Нова тема   Відповісти
Автор Повідомлення
sergiyko 
Забанено
Забанено


З нами з: 17.06.08
Востаннє: 13.10.13
Повідомлень: 259

2013-10-08 12:52  
Всесвітня Війна Z / World War Z (2013) 720p Ukr/Eng | Sub Ukr/Eng


Всесвітня Війна Z / World War Z (2013) 720p Ukr/Eng | Sub Ukr/Eng


Жанр: екшн, пригодницький, жахи, фантастика, трилер
Країна: США, Мальта



Кінокомпанія: Plan B Entertainment, Apparatus Productions, GK Films
Режисер: Марк Форстер
Актори: Бред Пітт, Мірей Енос, Даніелла Кертез, Джеймс Бадж Дейл, Метью Фокс.

Сюжет:
Напад живих мерців — не жарт і не казка. Зомбі зненацька стали реальністю, яка загрожує загибеллю всьому людству. Гниючі, напіврозкладені, вони практично невразливі — зате найдрібніше поранення, нанесене ними живій людині, загрожує перетворити її на зомбі. Епічна битва розгортається на всіх континентах і охоплює безліч країн, від Китаю до США і від Куби до Росії. Земля — на межі катастрофи. І зовсім незрозуміло, як знищити супротивника, який уже мертвий.....


Тривалість: 01:56:01
Якість: 720p
Відео:
кодек:
розмір кадру: 1280x534
бітрейт: 4472 кб/с

Аудіо #1:
мова: українська
переклад: професійний дубльований
кодек: 5.1
бітрейт: 448 кб/с

Джерело озвучення:

Аудіо #2:
мова: англійська
переклад: оригінал
кодек: 5.1
бітрейт: 1536 кб/с

Субтитри #1:
мова: українська (повні)
тип: програмні (м'які)
формат: *.srt

Субтитри #2:
мова: англійська (повні)
тип: програмні (м'які)
формат: *.srt

Субтитри #3:
мова: англійська (SDH)
тип: програмні (м'які)
формат: *.srt
MediaInfo
General
Unique ID : 185349334406848571242559421317952205648 (0x8B70FBBB8E88F8378E866F7413BA7350)
Complete name : E:\Torrents\Films\World.War.Z.2013.Theatrical.720p..Ukr.mkv
Format : Matroska
Format version : Version 4 / Version 2
File size : 5.18 GiB
Duration : 1h 56mn
Overall bit rate : 6 386 Kbps
Encoded date : UTC 2013-10-08 10:31:03
Writing application : mkvmerge v6.2.0 ('Promised Land') built on Apr 28 2013 12:22:01
Writing library : libebml v1.3.0 + libmatroska v1.4.0

Video
ID : 1
Format : AVC
Format/Info : Advanced Video Codec
Format profile : [email protected]
Format settings, CABAC : Yes
Format settings, ReFrames : 12 frames
Codec ID : V_MPEG4/ISO/AVC
Duration : 1h 56mn
Bit rate : 4 427 Kbps
Width : 1 280 pixels
Height : 534 pixels
Display aspect ratio : 2.40:1
Frame rate mode : Constant
Frame rate : 23.976 fps
Color space : YUV
Chroma subsampling : 4:2:0
Bit depth : 8 bits
Scan type : Progressive
Bits/(Pixel*Frame) : 0.270
Stream size : 3.49 GiB (67%)
Writing library : core 138 r2359+704+48 3f879a0 tMod [[email protected] X86_64]
Encoding settings : cabac=1 / ref=12 / deblock=1:-3:-3 / analyse=0x3:0x133 / me=umh / subme=11 / psy=1 / fade_compensate=0.00 / psy_rd=1.00:0.00 / mixed_ref=1 / me_range=48 / chroma_me=1 / trellis=2 / 8x8dct=1 / cqm=0 / deadzone=21,11 / fast_pskip=0 / chroma_qp_offset=-2 / threads=12 / lookahead_threads=2 / sliced_threads=0 / nr=0 / decimate=0 / interlaced=0 / bluray_compat=0 / constrained_intra=0 / fgo=0 / bframes=7 / b_pyramid=2 / b_adapt=2 / b_bias=0 / direct=3 / weightb=1 / open_gop=0 / weightp=2 / keyint=240 / keyint_min=23 / scenecut=40 / intra_refresh=0 / rc_lookahead=60 / rc=2pass / mbtree=0 / bitrate=4427 / ratetol=1.0 / qcomp=0.60 / qpmin=0:0:0 / qpmax=69:69:69 / qpstep=4 / cplxblur=20.0 / qblur=0.5 / vbv_maxrate=50000 / vbv_bufsize=62500 / nal_hrd=none / ip_ratio=1.30 / pb_ratio=1.25 / aq=1:0.80 / aq-sensitivity=10.00 / aq-factor=1.00:1.00:1.00 / aq2=0 / aq3=0
Language : English
Default : Yes
Forced : No

Audio #1
ID : 2
Format : AC-3
Format/Info : Audio Coding 3
Mode extension : CM (complete main)
Format settings, Endianness : Big
Codec ID : A_AC3
Duration : 1h 56mn
Bit rate mode : Constant
Bit rate : 448 Kbps
Channel count : 6 channels
Channel positions : Front: L C R, Side: L R, LFE
Sampling rate : 48.0 KHz
Bit depth : 16 bits
Compression mode : Lossy
Stream size : 372 MiB (7%)
Title : DD 5.1 448kbps, Український дубляж
Language : Ukrainian
Default : Yes
Forced : No

Audio #2
ID : 3
Format :
Format/Info : Digital Theater Systems
Mode : 16
Format settings, Endianness : Big
Codec ID : A_DTS
Duration : 1h 56mn
Bit rate mode : Constant
Bit rate : 1 509 Kbps
Channel count : 6 channels
Channel positions : Front: L C R, Side: L R, LFE
Sampling rate : 48.0 KHz
Bit depth : 24 bits
Compression mode : Lossy
Stream size : 1.22 GiB (24%)
Title : 5.1 @ 1536 kbps
Language : English
Default : No
Forced : No

Text #1
ID : 4
Format : UTF-8
Codec ID : S_TEXT/UTF8
Codec ID/Info : UTF-8 Plain Text
Language : Ukrainian
Default : No
Forced : No

Text #2
ID : 5
Format : UTF-8
Codec ID : S_TEXT/UTF8
Codec ID/Info : UTF-8 Plain Text
Language : English
Default : No
Forced : No

Text #3
ID : 6
Format : UTF-8
Codec ID : S_TEXT/UTF8
Codec ID/Info : UTF-8 Plain Text
Title : SDH
Language : English
Default : No
Forced : No

Menu
00:00:00.000 : en:00:00:00.000
00:05:05.180 : en:00:05:05.180
00:13:04.659 : en:00:13:04.659
00:20:31.188 : en:00:20:31.188
00:27:02.579 : en:00:27:02.579
00:32:38.039 : en:00:32:38.039
00:39:35.331 : en:00:39:35.331
00:49:06.152 : en:00:49:06.152
00:55:22.027 : en:00:55:22.027
01:01:41.239 : en:01:01:41.239
01:09:18.654 : en:01:09:18.654
01:17:03.035 : en:01:17:03.035
01:22:09.842 : en:01:22:09.842
01:27:51.558 : en:01:27:51.558
01:36:41.587 : en:01:36:41.587
01:45:14.099 : en:01:45:14.099
01:48:46.645 : en:01:48:46.645
Скріншоти


Збережено оригінальні розділи, як на Blu-ray.


Джерело:


 Трекер:    Зареєстрований   

Завантажити / скачати фільм українською



відео для новачків



 Зареєстрований:   2013-10-08 13:12
 Розмір:   5.18 GB 
 Оцінка фільму:   8.7/10 (Голосів: 40)
   
Інші релізи
   Всесвітня Війна Z [Розширена версія] / World War Z [Unrated Cut] (2013) AVC Ukr/Eng | Sub Ukr/Eng Yarik M  5 / 2   2.27 GB   2015-11-21 13:34 
   Всесвітня Війна Z [Розширена версія] / World War Z [Unrated Cut] (2013) 1080p Ukr/Eng | Sub Ukr/Eng Demrandir  4 / 0   11.57 GB   2015-11-19 21:18 
   Всесвітня Війна Z [Розширена версія] / World War Z [Unrated Cut] (2013) [5.1 ] Український дубляж + вставки оригіналу | Sub Ukr Demrandir  1 / 0   394 MB   2015-11-19 19:02 
   Всесвітня Війна Z / World War Z (2013) 1080p H.265 Ukr/Eng | Sub Ukr/Eng Tenax555  3 / 0   7.77 GB   2014-09-19 23:17 
   Всесвітня Війна Z / World War Z (2013) 1080p | 3D-Video seroga13  2 / 1   8.78 GB   2013-10-15 21:33 
   Всесвітня Війна Z / World War Z [Theatrical Cut] (2013) Remux 1080p Ukr/Eng | Sub Ukr/Eng 11FrYkT  2 / 0   28.18 GB   2013-10-09 06:53 
   Всесвітня Війна Z / World War Z [Theatrical Cut] (2013) AVC Ukr/Eng | Sub Ukr/Eng 11FrYkT  4 / 0   2.75 GB   2013-10-08 16:41 
   Всесвітня Війна Z / World War Z (2013) sergiyko  20 / 0   1.51 GB   2013-10-08 12:38 
   Всесвітня Війна Z / World War Z [Theatrical Cut] (2013) 1080p Ukr/Eng | Sub Ukr/Eng igor911  7 / 0   9.7 GB   2013-10-08 03:56 
   Всесвітня війна Z [Театральна версія] / World War Z [Theatrical Cut] (2013) Ukr/Eng | Sub Ukr/Eng Jatx_11  7 / 0   2.18 GB   2013-10-07 23:34 
Nikson 
VIP


З нами з: 12.01.10
Востаннє: 02.12.16
Повідомлень: 651

2013-10-09 16:17  
Фільм виправдовує рейтинг. 7 з 10
NeetScrool 
Відео Гуртом - фільмокрай
Відео Гуртом - фільмокрай


З нами з: 10.01.13
Востаннє: 03.12.16
Повідомлень: 2206

2013-10-09 19:28  
Шлак.
sergiyko 
Забанено
Забанено


З нами з: 17.06.08
Востаннє: 13.10.13
Повідомлень: 259

2013-10-09 20:53  
NeetScrool
Ти просто пости набиваєшь!?

NeetScrool 
Відео Гуртом - фільмокрай
Відео Гуртом - фільмокрай


З нами з: 10.01.13
Востаннє: 03.12.16
Повідомлень: 2206

2013-10-09 20:56  
sergiyko написано:
Ти просто пости набиваєшь!?

Ні.

taras_13 
Новенький


З нами з: 02.01.09
Востаннє: 01.12.16
Повідомлень: 8

2013-10-13 08:02  
вільм казка не вартий уваги(на один раз), озвучка теж бажає бути кращою(скаче) !!!
trelxtrel 
VIP


З нами з: 15.12.10
Востаннє: 02.12.16
Повідомлень: 327

2014-03-17 11:27  
На мою думку цілком навіть вартий уваги! Непоганий екшн, особисто мені сподобався! Із фільмів про напад зомбі і апокаліпсис,що викликаний таємничим вірусом - цілком не погана екранізація!

7/10

Olkos 
VIP


З нами з: 07.03.09
Востаннє: 03.12.16
Повідомлень: 534

2015-04-21 07:17  
Доволі посередній фільм. Крім сцен в Єрусалимі, нічого більше і не сподобалось.
мамбо 
Поважний учасник


З нами з: 23.12.11
Востаннє: 30.11.16
Повідомлень: 208

2016-11-19 18:33  
Станьте на роздачу))Дякую.
Ваш часовий пояс: GMT + 2 Години

Нова тема   Відповісти