Завантажити та скачати торренти українською


Всесвітня Війна Z / World War Z [Theatrical Cut] (2013) 1080p Ukr/Eng | Sub Ukr/Eng

Нові коментарі

Нова тема   Відповісти
Автор Повідомлення
Anonymous 







2013-10-07 21:26  
Всесвітня Війна Z / World War Z [Theatrical Cut] (2013) 1080p Ukr/Eng | Sub Ukr/Eng



Альтернативний постер



Жанр: бойовик, пригодницький, жахи, фантастика, трилер
Країна: США, Мальта



Кінокомпанія: Plan B Entertainment, Apparatus Productions, GK Films
Режисер: Марк Форстер / Marc Forster
Актори: Бред Пітт / Brad Pitt, Мірей Енос / Mireille Enos, Даніелла Кертеш / Daniella Kertesz, Джеймс Бадж Дейл / James Badge Dale, Метью Фокс / Matthew Fox, Луді Бокен / Ludi Boeken, Фана Мокоена / Fana Mokoena та інші.

Сюжет:
Напад живих мерців — не жарт і не казка. Зомбі зненацька стали реальністю, яка загрожує загибеллю всьому людству. Гниючі, напіврозкладені, вони практично невразливі — зате найдрібніше поранення, нанесене ними живій людині, загрожує перетворити її на зомбі. Епічна битва розгортається на всіх континентах і охоплює безліч країн, від Китаю до США і від Куби до Росії. Земля — на межі катастрофи. І зовсім незрозуміло, як знищити супротивника, який вже мертвий.....



Рейтинг MPAA: PG-13 - дітям до 13 років перегляд не бажаний
Вікова категорія: 12+


Тривалість: 01:56:01
Якість: 1080p
Відео:
кодек:
розмір кадру: 1920x800
бітрейт: 10.0 Mbps

Аудіо # 1:
мова: українська - LeDoyen Studio
переклад: професійний дубльований
кодек: 5.1
бітрейт: 448 кб/с

Аудіо # 2:
мова: англійська
переклад: оригінал
кодек: 5.1
бітрейт: 1536 кб/с

Субтитри # 1:
мова: українська (повні) | власне розпізнавання
тип: програмні (м'які)
формат: *.srt

Субтитри # 2:
мова: англійська (повні)
тип: програмні (м'які)
формат: *.srt

Субтитри # 3:
мова: англійська (SDH)
тип: програмні (м'які)
формат: *.srt

Збережено оригінальні розділи, як на Blu-ray.
MediaInfo
Код:
General
Unique ID                                : 178494248043156553463893409729425685832 (0x8648BDE168BA4C9D917C032712C7BD48)
Complete name                            : World War Z [Theatrical Cut] (2013) [Ukr,Eng sub.Ukr,Eng] 1080p [Hurtom & HDCLUB].mkv
Format                                   : Matroska
Format version                           : Version 4 / Version 2
File size                                : 9.70 GiB
Duration                                 : 1h 56mn
Overall bit rate                         : 12.0 Mbps
Movie name                               : Всесвітня Війна Z / World War Z [Theatrical cut] (2013) [Hurtom & HDCLUB]
Encoded date                             : UTC 2013-10-08 01:24:09
Writing application                      : mkvmerge v6.4.1 ('Omega Point') built on Sep 16 2013 22:05:10
Writing library                          : libebml v1.3.0 + libmatroska v1.4.1

Video
ID                                       : 1
Format                                   : AVC
Format/Info                              : Advanced Video Codec
Format profile                           : [email protected]
Format settings, CABAC                   : Yes
Format settings, ReFrames                : 5 frames
Codec ID                                 : V_MPEG4/ISO/AVC
Duration                                 : 1h 56mn
Bit rate                                 : 10.0 Mbps
Width                                    : 1 920 pixels
Height                                   : 800 pixels
Display aspect ratio                     : 2.40:1
Frame rate mode                          : Constant
Frame rate                               : 23.976 fps
Color space                              : YUV
Chroma subsampling                       : 4:2:0
Bit depth                                : 8 bits
Scan type                                : Progressive
Bits/(Pixel*Frame)                       : 0.272
Stream size                              : 7.93 GiB (82%)
Title                                    : Всесвітня війна Z / World War Z [Theatrical cut] (2013) [HDCLUB]
Writing library                          : core 138 r2359+704+48 3f879a0 tMod [[email protected] X86_64]
Encoding settings                        : cabac=1 / ref=5 / deblock=1:-3:-3 / analyse=0x3:0x133 / me=umh / subme=11 / psy=1 / fade_compensate=0.00 / psy_rd=1.00:0.00 / mixed_ref=1 / me_range=48 / chroma_me=1 / trellis=2 / 8x8dct=1 / cqm=0 / deadzone=21,11 / fast_pskip=0 / chroma_qp_offset=-2 / threads=12 / lookahead_threads=2 / sliced_threads=0 / nr=0 / decimate=0 / interlaced=0 / bluray_compat=0 / constrained_intra=0 / fgo=0 / bframes=7 / b_pyramid=2 / b_adapt=2 / b_bias=0 / direct=3 / weightb=1 / open_gop=0 / weightp=2 / keyint=240 / keyint_min=23 / scenecut=40 / intra_refresh=0 / rc_lookahead=60 / rc=2pass / mbtree=0 / bitrate=10017 / ratetol=1.0 / qcomp=0.60 / qpmin=0:0:0 / qpmax=69:69:69 / qpstep=4 / cplxblur=20.0 / qblur=0.5 / vbv_maxrate=50000 / vbv_bufsize=62500 / nal_hrd=none / ip_ratio=1.30 / pb_ratio=1.25 / aq=1:0.80 / aq-sensitivity=10.00 / aq-factor=1.00:1.00:1.00 / aq2=0 / aq3=0
Language                                 : English
Default                                  : Yes
Forced                                   : No

Audio #1
ID                                       : 2
Format                                   : AC-3
Format/Info                              : Audio Coding 3
Mode extension                           : CM (complete main)
Format settings, Endianness              : Big
Codec ID                                 : A_AC3
Duration                                 : 1h 56mn
Bit rate mode                            : Constant
Bit rate                                 : 448 Kbps
Channel(s)                               : 6 channels
Channel positions                        : Front: L C R, Side: L R, LFE
Sampling rate                            : 48.0 KHz
Bit depth                                : 16 bits
Compression mode                         : Lossy
Stream size                              : 372 MiB (4%)
Title                                    : Dub [DVD, LeDoyen] 5.1 448 kbps
Language                                 : Ukrainian
Default                                  : Yes
Forced                                   : No

Audio #2
ID                                       : 3
Format                                   :
Format/Info                              : Digital Theater Systems
Mode                                     : 16
Format settings, Endianness              : Big
Codec ID                                 : A_DTS
Duration                                 : 1h 56mn
Bit rate mode                            : Constant
Bit rate                                 : 1 509 Kbps
Channel(s)                               : 6 channels
Channel positions                        : Front: L C R, Side: L R, LFE
Sampling rate                            : 48.0 KHz
Bit depth                                : 24 bits
Compression mode                         : Lossy
Stream size                              : 1.22 GiB (13%)
Title                                    : Original 5.1 1536 kbps
Language                                 : English
Default                                  : No
Forced                                   : No

Text #1
ID                                       : 4
Format                                   : UTF-8
Codec ID                                 : S_TEXT/UTF8
Codec ID/Info                            : UTF-8 Plain Text
Title                                    : Ukr full
Language                                 : Ukrainian
Default                                  : No
Forced                                   : No

Text #2
ID                                       : 5
Format                                   : UTF-8
Codec ID                                 : S_TEXT/UTF8
Codec ID/Info                            : UTF-8 Plain Text
Title                                    : Eng full
Language                                 : English
Default                                  : No
Forced                                   : No

Text #3
ID                                       : 6
Format                                   : UTF-8
Codec ID                                 : S_TEXT/UTF8
Codec ID/Info                            : UTF-8 Plain Text
Title                                    : Eng full [SDH]
Language                                 : English
Default                                  : No
Forced                                   : No

Menu
00:00:00.000                             : en:00:00:00.000
00:05:05.180                             : en:00:05:05.180
00:13:04.659                             : en:00:13:04.659
00:20:31.188                             : en:00:20:31.188
00:27:02.579                             : en:00:27:02.579
00:32:38.039                             : en:00:32:38.039
00:39:35.331                             : en:00:39:35.331
00:49:06.152                             : en:00:49:06.152
00:55:22.027                             : en:00:55:22.027
01:01:41.239                             : en:01:01:41.239
01:09:18.654                             : en:01:09:18.654
01:17:03.035                             : en:01:17:03.035
01:22:09.842                             : en:01:22:09.842
01:27:51.558                             : en:01:27:51.558
01:36:41.587                             : en:01:36:41.587
01:45:14.099                             : en:01:45:14.099
01:48:46.645                             : en:01:48:46.645




Джерело: & Youtracker (DVD9)

Особиста оцінка: 7 - можна разок глянути


ЗАЛИШАЙТЕСЬ ЯКОМОГА ДОВШЕ НА РОЗДАЧІ!

СКАЧАВ САМ - ДАЙ СКАЧАТИ ІНШИМ


 Трекер:    Зареєстрований   

Завантажити / скачати фільм українською



відео для новачків



 Зареєстрований:   2013-10-08 03:56
 Розмір:   9.7 GB 
 Оцінка фільму:   6.7/10 (Голосів: 39)
   
Інші релізи
   Всесвітня Війна Z [Розширена версія] / World War Z [Unrated Cut] (2013) AVC Ukr/Eng | Sub Ukr/Eng Yarik M  4 / 1   2.27 GB   2015-11-21 13:34 
   Всесвітня Війна Z [Розширена версія] / World War Z [Unrated Cut] (2013) 1080p Ukr/Eng | Sub Ukr/Eng Demrandir  1 / 0   11.57 GB   2015-11-19 21:18 
   Всесвітня Війна Z [Розширена версія] / World War Z [Unrated Cut] (2013) [5.1 ] Український дубляж + вставки оригіналу | Sub Ukr Demrandir  0 / 0   394 MB   2015-11-19 19:02 
   Всесвітня Війна Z / World War Z (2013) 1080p H.265 Ukr/Eng | Sub Ukr/Eng Tenax555  2 / 0   7.77 GB   2014-09-19 23:17 
   Всесвітня Війна Z / World War Z (2013) 1080p | 3D-Video seroga13  3 / 0   8.78 GB   2013-10-15 21:33 
   Всесвітня Війна Z / World War Z [Theatrical Cut] (2013) Remux 1080p Ukr/Eng | Sub Ukr/Eng 11FrYkT  2 / 0   28.18 GB   2013-10-09 06:53 
   Всесвітня Війна Z / World War Z [Theatrical Cut] (2013) AVC Ukr/Eng | Sub Ukr/Eng 11FrYkT  7 / 0   2.75 GB   2013-10-08 16:41 
   Всесвітня Війна Z / World War Z (2013) 720p Ukr/Eng | Sub Ukr/Eng sergiyko  2 / 0   5.18 GB   2013-10-08 13:12 
   Всесвітня Війна Z / World War Z (2013) sergiyko  8 / 0   1.51 GB   2013-10-08 12:38 
   Всесвітня війна Z [Театральна версія] / World War Z [Theatrical Cut] (2013) Ukr/Eng | Sub Ukr/Eng Jatx_11  5 / 0   2.18 GB   2013-10-07 23:34 
kmr 
Поважний учасник


З нами з: 18.04.10
Востаннє: 06.12.16
Повідомлень: 150

2013-10-08 09:32  
дуже спододобався фільм) Пітт дуже емоційно зіграв цю роль, гарні спецефекти)рекомендую Rolleyes (3)
patriots 
Свій


З нами з: 26.02.08
Востаннє: 10.12.16
Повідомлень: 88

2013-10-08 22:43  
нічогенький такий собі зомбі апокаліпсис
khaled 
Свій


З нами з: 30.06.09
Востаннє: 10.12.16
Повідомлень: 111

2013-10-09 17:13  
Дарма спочатку книгу слухав! Навпаки - все норм(можливо).
Фільм так собі*... Та із книжкою спільного тільки назва, зомбі та саундтрек(в моєму випадку).

* особливих емоцій не викликав. Навіть та ж таки "оселя зла" яскравіша в цьому жанрі.

А от книга... Значніше розкриває обставини, події. Це не кажучи про події на мосту патона в Києві

Fedik 
Свій


З нами з: 04.06.08
Востаннє: 04.12.16
Повідомлень: 109

2013-10-09 22:18  
якась зомбомелодрама на 2 години ... напевно це малось на увазі під жанром "жахи" Wide grin
waldi-hurtom 
VIP


З нами з: 07.10.12
Востаннє: 10.12.16
Повідомлень: 613

2013-10-20 00:22  
Слабенький фільмець. Гарненька обгортка за 190 лимонів, а всередині зоброфренія. Якби не Бред Піт, навіть не додивився до кінця. 6 з 10.
Infoserfer 
Свій


З нами з: 31.10.09
Востаннє: 10.12.16
Повідомлень: 76

2014-03-07 23:56  
Фільм одноразовий. Місцями тримав у напруженні і було навіть трохи цікаво, але загалом - слабка стрічка, 5/10.
Єдиний позитив (для мене) - у фільмі не помітив занадто кривавих сцен (випатраних тельбухів, поїдання людської плоті та ін.) що є майже візитівкою подібних жахастиків.

Maters 
VIP


З нами з: 27.03.12
Востаннє: 08.12.16
Повідомлень: 1162

2016-07-27 22:49  
Infoserfer написано:
Єдиний позитив (для мене) - у фільмі не помітив занадто кривавих сцен (випатраних тельбухів, поїдання людської плоті та ін.) що є майже візитівкою подібних жахастиків

до речі, тут я підтримую )

Ваш часовий пояс: GMT + 2 Години

Нова тема   Відповісти