Завантажити та скачати торренти українською


Гладіатор [Розширена версія] / Gladiator [Extended Cut] (2000) 720p Ukr/Eng | Sub Ukr/Eng

Нові коментарі

Нова тема   Відповісти
Автор Повідомлення
braveboy 
Відео Гуртом - команда HD
Відео Гуртом - команда HD


З нами з: 15.06.10
Востаннє: 29.10.16
Повідомлень: 958

2013-10-06 05:58  

Гладіатор [Розширена версія] / Gladiator [Extended Cut] (2000) 720p Ukr/Eng | Sub Ukr/Eng




«Генерал, який став рабом. Раб, який став гладіатором. Гладіатор, який кинув виклик імперії. »


Жанр: бойовик, драма, історичний
Країна: США, Великобританія


Кінокомпанія: DreamWorks SKG | Scott Free Productions | Universal Pictures
Режисер: Рідлі Скотт
Актори: Рассел Кроу, Хоакін Фенікс, Конні Нільсен, Олівер Рід, Річард Харріс, Дерек Джекоб, Джимон Хунсу, Девід Скофілд, Джон Шрепнел, Томас Гарана

Володар 5 премій «ОСКАР» за Кращий фільм, Кращу чоловічу роль (Рассел Кроу)
Кращі костюми, Кращий звук і Кращі візуальні ефекти. 7 номінацій включаючи Кращого режисера (Рідлі Скотт), 2001р.


Сюжет:
У великій Римській імперії не було воєначальника, рівного Максимусу. Непереможні легіони, якими командував цей благородний воїн, обожнювали його і могли піти з ним навіть у пекло.
Але сталося так, що відважний Максимус, готовий битися з будь-яким супротивником в чесному бою, опинився безсилий проти віроломних придворних інтриг. Генерала зрадили і засудили до смерті. Дивом уникнувши загибелі, Максимус стає гладіатором.
Швидко здобувши собі славу в кривавих поєдинках, він опиняється в знаменитому римському Колізеї, де на його арені він зустрінеться, в смертельній сутичці, зі своїм запеклим ворогом ...



Тривалість: 2:50:58
Якість: 720p
Відео:
кодек:
розмір кадру: 1280 х 544
бітрейт: 8484 кб/с

Аудіо # 1:
мова: українська
переклад: багатоголосий закадровий
кодек: 5.1
бітрейт: 448 кб/с

Аудіо # 2:
мова: англійська
переклад: оригінал
кодек: 5.1
бітрейт: 1509 кб/с

Джерело озвучення:


Субтитри:
мова: українська (до моментів без перекладу)
тип: програмні (м'які)
формат: *.srt

Субтитри:
мова: англійська
тип: програмні (м'які)
формат: *.srt
720p by braveboy
MediaInfo
Video
ID : 1
Format : AVC
Format/Info : Advanced Video Codec
Format profile : [email protected]
Format settings, CABAC : Yes
Format settings, ReFrames : 8 frames
Codec ID : V_MPEG4/ISO/AVC
Duration : 2h 50mn
Bit rate : 8 484 Kbps
Width : 1 280 pixels
Height : 544 pixels
Display aspect ratio : 2.35:1
Frame rate mode : Constant
Frame rate : 23.976 fps
Color space : YUV
Chroma subsampling : 4:2:0
Bit depth : 8 bits
Scan type : Progressive
Bits/(Pixel*Frame) : 0.508
Stream size : 9.88 GiB (79%)
Title : Gladiator [Extended Cut] (2000) 720p by braveboy
Writing library : core 129 r2245 bc13772
Encoding settings : cabac=1 / ref=8 / deblock=1:-3:-3 / analyse=0x3:0x133 / me=umh / subme=9 / psy=1 / psy_rd=0.80:0.00 / mixed_ref=1 / me_range=32 / chroma_me=1 / trellis=1 / 8x8dct=1 / cqm=0 / deadzone=21,11 / fast_pskip=0 / chroma_qp_offset=-2 / threads=6 / lookahead_threads=1 / sliced_threads=0 / nr=0 / decimate=0 / interlaced=0 / bluray_compat=0 / constrained_intra=0 / bframes=6 / b_pyramid=2 / b_adapt=2 / b_bias=0 / direct=1 / weightb=1 / open_gop=0 / weightp=2 / keyint=240 / keyint_min=23 / scenecut=40 / intra_refresh=0 / rc=2pass / mbtree=0 / bitrate=8484 / ratetol=1.0 / qcomp=0.60 / qpmin=10 / qpmax=51 / qpstep=4 / cplxblur=20.0 / qblur=0.5 / ip_ratio=1.40 / pb_ratio=1.30 / aq=1:1.00
Default : Yes
Forced : No

Audio #1
ID : 2
Format : AC-3
Format/Info : Audio Coding 3
Mode extension : CM (complete main)
Format settings, Endianness : Big
Codec ID : A_AC3
Duration : 2h 50mn
Bit rate mode : Constant
Bit rate : 448 Kbps
Channel(s) : 6 channels
Channel positions : Front: L C R, Side: L R, LFE
Sampling rate : 48.0 KHz
Bit depth : 16 bits
Compression mode : Lossy
Stream size : 548 MiB (4%)
Title : 5.1 @ 448 kbps [ICTV]
Language : Ukrainian
Default : Yes
Forced : No

Audio #2
ID : 3
Format :
Format/Info : Digital Theater Systems
Mode : 16
Format settings, Endianness : Big
Codec ID : A_DTS
Duration : 2h 50mn
Bit rate mode : Constant
Bit rate : 1 509 Kbps
Channel(s) : 6 channels
Channel positions : Front: L C R, Side: L R, LFE
Sampling rate : 48.0 KHz
Bit depth : 24 bits
Compression mode : Lossy
Stream size : 1.80 GiB (14%)
Title : 5.1 @ 1509 kbps
Language : English
Default : No
Forced : No

Text #1
ID : 4
Format : UTF-8
Codec ID : S_TEXT/UTF8
Codec ID/Info : UTF-8 Plain Text
Title : Forced
Language : Ukrainian
Default : Yes
Forced : No

Text #2
ID : 5
Format : UTF-8
Codec ID : S_TEXT/UTF8
Codec ID/Info : UTF-8 Plain Text
Title : Full
Language : English
Default : No
Forced : No

Menu
00:00:00.000 : en:00:00:00.000
00:07:14.309 : en:00:07:14.309
00:12:51.104 : en:00:12:51.104
00:18:45.791 : en:00:18:45.791
00:23:30.326 : en:00:23:30.326
00:32:59.394 : en:00:32:59.394
00:37:35.879 : en:00:37:35.879
00:40:51.741 : en:00:40:51.741
00:47:33.726 : en:00:47:33.726
00:51:36.844 : en:00:51:36.844
00:55:45.384 : en:00:55:45.384
01:02:22.280 : en:01:02:22.280
01:09:57.985 : en:01:09:57.985
01:19:09.286 : en:01:19:09.286
01:29:22.649 : en:01:29:22.649
01:37:12.785 : en:01:37:12.785
01:41:36.799 : en:01:41:36.799
01:51:59.838 : en:01:51:59.838
01:56:37.282 : en:01:56:37.282
02:00:44.487 : en:02:00:44.487
02:04:43.226 : en:02:04:43.226
02:12:20.015 : en:02:12:20.015
02:13:33.589 : en:02:13:33.589
02:24:16.439 : en:02:24:16.439
02:28:49.670 : en:02:28:49.670
02:34:21.794 : en:02:34:21.794
02:38:44.598 : en:02:38:44.598
02:42:58.769 : en:02:42:58.769
Скріншоти
Особиста оцінка: 10 - без зайвих вагань рекомендую всім!


Срібний реліз (на рейтинг впливає 50% завантаженого)
 Трекер:    Зареєстрований   

Завантажити / скачати фільм українською



відео для новачків



 Зареєстрований:   2013-10-06 06:11
 Розмір:   12.47 GB 
 Оцінка фільму:   10/10 (Голосів: 33)
   
bodia87 
Відео Гуртом - фільмокрай
Відео Гуртом - фільмокрай


З нами з: 24.01.09
Востаннє: 03.12.16
Повідомлень: 468

2013-10-14 08:28  
По транслювали з ідентичним озвученням !
irusiaaa 
Свій


З нами з: 02.01.13
Востаннє: 03.12.16
Повідомлень: 67

2014-03-24 19:57  
Справді - одних з кращих фільмів!
Scemp26 
Новенький


З нами з: 13.04.15
Востаннє: 29.11.16
Повідомлень: 7

2015-05-17 16:06  
Що за х***, половина фільму українською, а інша половина англійською!!!!!!!!!!( я звісно непроти подивиться в оригіналі, але це якийсь жах коли двома одночасно)
Ваш часовий пояс: GMT + 2 Години

Нова тема   Відповісти