Завантажити та скачати торренти українською


Земля після нашої ери / After Earth (2013) 720p-mini

Нові коментарі

Нова тема   Відповісти
Автор Повідомлення
Drool 
VIP


З нами з: 17.04.10
Востаннє: 10.12.16
Повідомлень: 1270

2013-10-04 13:50  
Земля після нашої ери / After Earth (2013) 720p-mini

Жанр: бойовик, пригодницький, фантастика
Країна: США



Кінокомпанія: Columbia Pictures, Overbrook Entertainment, Blinding Edge Pictures
Режисер: М. Найт Ш'ямалан
Актори: Вілл Сміт, Джейден Сміт, Ізабелль Фюрман, Зоі Кравіц, Девід Денман, Софі Оконедо та інші.

Сюжет:
Події розгортаються через тисячу років після катастрофи, що змусила людство покинути Землю. Новим будинком стає планета під назвою Нова Прайм. Легендарний генерал Сайфер Рейдж повертається з чергового бойового завдання в сім'ю, яка раніше обходилася без його батьківської уваги, щоб стати батьком свому 13-річному синові Китаю. Під час астероїдної бурі літальний апарат з татом і сином на борту терпить крах, падаючи на незнайому і небезпечну Землю. І поки Рейдж-старший на останньому диханні лежить серед уламків свого корабля, син повинен перетнути ворожий ландшафт, щоб запустити їх рятувальний маячок. Ні про що більше юнак у своєму житті не мріяв: бути солдатом, як батько, - його заповітне бажання. Сьогодні у нього є шанс проявити себе.


Тривалість: 01:40:03
Якість: 720p-mini
Відео:
кодек:
розмір кадру: 1280x534
бітрейт: 2409 кб/с

Аудіо:
мова: українська
переклад: професійний дубльований
кодек: 5.1
бітрейт: 640 кб/с

Джерело озвучення:
MediaInfo
General
Unique ID : 247441139194788377081472836845809790026 (0xBA276E10DDAC08EB59C4064E1B796C4A)
Complete name : /mnt/disk/Video/After.Earth.2013.Ukr.Dub..720p-mini.mkv
Format : Matroska
File size : 2.17 GiB
Duration : 1h 40mn
Overall bit rate : 3 111 Kbps
Movie name : Земля після нашої ери / After Earth (2013) 720p-mini | [email protected]
Encoded date : UTC 2013-10-04 11:34:15
Writing application : mkvmerge v4.8.0 ('I Got The...') сборка от Aug 22 2011 13:16:28
Writing library : libebml v1.2.0 + libmatroska v1.1.0

Video
ID : 1
Format : AVC
Format/Info : Advanced Video Codec
Format profile : [email protected]
Format settings, CABAC : Yes
Format settings, ReFrames : 12 frames
Codec ID : V_MPEG4/ISO/AVC
Duration : 1h 40mn
Bit rate : 2 409 Kbps
Width : 1 280 pixels
Height : 534 pixels
Display aspect ratio : 2.35:1
Frame rate : 23.976 fps
Color space : YUV
Chroma subsampling : 4:2:0
Bit depth : 8 bits
Scan type : Progressive
Bits/(Pixel*Frame) : 0.147
Stream size : 1.68 GiB (77%)
Title : Земля після нашої ери / After Earth (2013) 720p-mini | [email protected]
Writing library : core 136 r2348+704+51 d1baef6 tMod [[email protected] X86]
Encoding settings : cabac=1 / ref=12 / deblock=1:-2:-1 / analyse=0x3:0x113 / me=umh / subme=11 / psy=1 / fade_compensate=0.00 / psy_rd=1.03:0.00 / mixed_ref=1 / me_range=24 / chroma_me=1 / trellis=2 / 8x8dct=1 / cqm=0 / deadzone=21,11 / fast_pskip=0 / chroma_qp_offset=-2 / threads=12 / lookahead_threads=2 / sliced_threads=0 / nr=0 / decimate=1 / interlaced=0 / bluray_compat=0 / constrained_intra=0 / fgo=0 / bframes=8 / b_pyramid=2 / b_adapt=2 / b_bias=0 / direct=1 / weightb=1 / open_gop=0 / weightp=2 / keyint=240 / keyint_min=23 / scenecut=40 / intra_refresh=0 / rc_lookahead=40 / rc=crf / mbtree=0 / crf=18.5000 / qcomp=0.65 / qpmin=0:0:0 / qpmax=69:69:69 / qpstep=4 / vbv_maxrate=50000 / vbv_bufsize=62500 / crf_max=0.0 / nal_hrd=none / ip_ratio=1.40 / pb_ratio=1.30 / aq=2:1.00 / aq-sensitivity=10.00 / aq-factor=1.00:1.00:1.00 / aq2=0 / aq3=0

Audio
ID : 2
Format : AC-3
Format/Info : Audio Coding 3
Mode extension : CM (complete main)
Codec ID : A_AC3
Duration : 1h 40mn
Bit rate mode : Constant
Bit rate : 640 Kbps
Channel(s) : 6 channels
Channel positions : Front: L C R, Side: L R, LFE
Sampling rate : 48.0 KHz
Bit depth : 16 bits
Compression mode : Lossy
Stream size : 458 MiB (21%)
Title : Рідна мова (640 kbps) | Дубляж
Language : Ukrainian
Скріншоти






Походження: відеоряд взято з ріпу
Особиста оцінка: 8 - мені сподобалося


 Трекер:    Зареєстрований   

Завантажити / скачати фільм українською



відео для новачків



 Зареєстрований:   2013-10-04 13:50
 Розмір:   2.17 GB 
 Оцінка фільму:   8.1/10 (Голосів: 36)
   
Bendera_ 
Новенький


З нами з: 25.02.13
Востаннє: 02.12.16
Повідомлень: 5

2013-10-04 14:33  
Станьте на роздачу, будь ласка.
DoctorLife 
Новенький


З нами з: 19.04.10
Востаннє: 09.12.16
Повідомлень: 17

2013-10-05 19:03  
Хороший фільм, але не для всіх.
Комусь видасться трешем, а когось зачепить.

У фільмі півтора актора.

hameleon813 
Новенький


З нами з: 05.11.13
Востаннє: 04.12.16
Повідомлень: 4

2013-11-08 00:00  
Полюбляю фільми такого жанру )))
Maters 
VIP


З нами з: 27.03.12
Востаннє: 08.12.16
Повідомлень: 1162

2013-12-30 00:56  
гарний фільм, але разовий. вдруге дивитись вже не захочеться, хіба що через років 5)
janina1995 
Новенький


З нами з: 09.04.14
Востаннє: 21.11.16
Повідомлень: 1

2016-02-19 20:04  
Станьте на роздачу, будь ласка.
Ваш часовий пояс: GMT + 2 Години

Нова тема   Відповісти