Завантажити та скачати торренти українською


Джек - вбивця велетнів / Jack the Giant Slayer (2013) 1080p (60fps) Ukr/Eng | Sub Eng

Нові коментарі

Нова тема   Відповісти
Автор Повідомлення
Drool 
VIP


З нами з: 17.04.10
Востаннє: 02.12.16
Повідомлень: 1262

2013-10-03 13:31  
Джек - вбивця велетнів / Jack the Giant Slayer (2013) 1080p (60fps) Ukr/Eng | Sub Eng

Жанр: пригодницький, фентезі
Країна: США



Кінокомпанія: New Line Cinema, Legendary Pictures, Original Film
Режисер: Браян Сінґер
Актори: Ніколас Голт, Елінор Томлінсон, Юен МакҐреґор, Стенлі Туччі, Йен МакШейн, Едді Марсан, Юен Бремнер

Сюжет:
Нова інтерпретація відомої казки "Джек і бобове стебло". Цей захоплюючий фентезійний фільм розповість про небезпечне протистояння людської раси і небесного народу — злих велетнів. Річ у тім, що колись земля належала саме велетням, поки якийсь герой не прогнав їх. Тепер, захопивши в полон принцесу, стародавній народ збирається повернути своє. І єдиний, хто може цьому перешкодити — простий фермер на ім'я Джек.


Тривалість: 01:54:20
Якість: 1080p
Відео:
кодек:
розмір кадру: 1920x800
бітрейт: 30.0 Мб/с
частота кадрів: 60 кадрів/с

Аудіо # 1:
мова: українська
переклад: професійний дубльований
кодек: 5.1
бітрейт: 640 кб/с

Аудіо # 2:
мова: англійська
переклад: оригінал
кодек: 5.1
бітрейт: 1510 кб/с

Джерело озвучення:


Субтитри:
мова: українська
тип: програмні (м'які) | форсовані
формат: *.srt

Субтитри:
мова: англійська
тип: програмні (м'які) | повні
формат: *.srt

Субтитри:
мова: англійська
тип: програмні (м'які) | повні SDH
формат: *.ass
MediaInfo
General
Unique ID : 98349182481493979743938798421470494053 (0x49FD5D11EBEBB044F42BD4A8618E3D65)
Complete name : ./Jack.the.Giant.Slayer.2013.Ukr.Dub..1080p.60fps.mkv
Format : Matroska
Format version : Version 4 / Version 2
File size : 25.7 GiB
Duration : 1h 54mn
Overall bit rate : 32.1 Mbps
Movie name : Джек - вбивця велетнів / Jack the Giant Slayer (2013) 1080p 60fps Ukr/Eng | Sub Eng -=POTROKS=-
Encoded date : UTC 2010-02-22 21:41:31
Writing application : mkvmerge v6.1.0 ('Old Devil') built on Apr 14 2013 12:26:22
Writing library : libebml v1.3.0 + libmatroska v1.4.0
Attachment : Yes / Yes / Yes

Video
ID : 1
Format : AVC
Format/Info : Advanced Video Codec
Format profile : [email protected]
Format settings, CABAC : Yes
Format settings, ReFrames : 5 frames
Codec ID : V_MPEG4/ISO/AVC
Duration : 1h 54mn
Bit rate : 30.0 Mbps
Width : 1 920 pixels
Height : 800 pixels
Display aspect ratio : 2.40:1
Frame rate : 59.940 fps
Color space : YUV
Chroma subsampling : 4:2:0
Bit depth : 8 bits
Scan type : Progressive
Bits/(Pixel*Frame) : 0.326
Stream size : 23.4 GiB (91%)
Title : Джек - вбивця велетнів / Jack the Giant Slayer (2013) 1080p 60fps Ukr/Eng | Sub Eng -=POTROKS=-
Writing library : core 130 r2273 b3065e6
Encoding settings : cabac=1 / ref=5 / deblock=1:-3:-3 / analyse=0x3:0x133 / me=esa / subme=9 / psy=1 / psy_rd=1.00:0.00 / mixed_ref=1 / me_range=35 / chroma_me=1 / trellis=2 / 8x8dct=1 / cqm=0 / deadzone=21,11 / fast_pskip=1 / chroma_qp_offset=-2 / threads=12 / lookahead_threads=1 / sliced_threads=0 / nr=0 / decimate=1 / interlaced=0 / bluray_compat=0 / constrained_intra=0 / bframes=3 / b_pyramid=2 / b_adapt=2 / b_bias=0 / direct=3 / weightb=1 / open_gop=0 / weightp=2 / keyint=599 / keyint_min=59 / scenecut=40 / intra_refresh=0 / rc_lookahead=60 / rc=2pass / mbtree=1 / bitrate=30013 / ratetol=1.0 / qcomp=0.60 / qpmin=0 / qpmax=69 / qpstep=4 / cplxblur=20.0 / qblur=0.5 / vbv_maxrate=62500 / vbv_bufsize=78125 / nal_hrd=none / ip_ratio=1.40 / aq=1:1.00
Default : No
Forced : No

Audio #1
ID : 2
Format : AC-3
Format/Info : Audio Coding 3
Mode extension : CM (complete main)
Codec ID : A_AC3
Duration : 1h 54mn
Bit rate mode : Constant
Bit rate : 640 Kbps
Channel(s) : 6 channels
Channel positions : Front: L C R, Side: L R, LFE
Sampling rate : 48.0 KHz
Bit depth : 16 bits
Compression mode : Lossy
Stream size : 524 MiB (2%)
Title : DD 5.1 @ 640 kbps - Dub, BD CEE
Language : Ukrainian
Default : Yes
Forced : Yes

Audio #2
ID : 3
Format :
Format/Info : Digital Theater Systems
Codec ID : A_DTS
Duration : 1h 54mn
Bit rate mode : Constant
Bit rate : 1 510 Kbps
Channel(s) : 6 channels
Channel positions : Front: L C R, Side: L R, LFE
Sampling rate : 48.0 KHz
Bit depth : 24 bits
Compression mode : Lossy
Stream size : 1.21 GiB (5%)
Title : 5.1 @ 1536 kbps
Language : English
Default : No
Forced : No

Text #1
ID : 4
Format : UTF-8
Codec ID : S_TEXT/UTF8
Codec ID/Info : UTF-8 Plain Text
Title : Jack the Giant Slayer (2013) UKR (forsed)
Language : Ukrainian
Default : Yes
Forced : No

Text #2
ID : 5
Format : UTF-8
Codec ID : S_TEXT/UTF8
Codec ID/Info : UTF-8 Plain Text
Title : Jack the Giant Slayer (2013) ENG
Language : English
Default : No
Forced : No

Text #3
ID : 6
Format : ASS
Codec ID : S_TEXT/ASS
Codec ID/Info : Advanced Sub Station Alpha
Compression mode : Lossless
Title : SDH
Language : English
Default : No
Forced : No

Menu
00:00:00.000 : en:00:00:00.000
00:10:21.370 : en:00:10:21.370
00:19:23.745 : en:00:19:23.745
00:29:52.207 : en:00:29:52.207
00:38:55.374 : en:00:38:55.374
00:49:24.878 : en:00:49:24.878
00:59:35.488 : en:00:59:35.488
01:09:26.287 : en:01:09:26.287
01:20:39.167 : en:01:20:39.167
01:29:51.302 : en:01:29:51.302
01:39:02.811 : en:01:39:02.811
01:45:57.726 : en:01:45:57.726
Скріншоти






Походження: відеоряд взято з ріпа
Особиста оцінка: 9 - давно не бачив настільки якісне кіно


 Трекер:    Зареєстрований   

Завантажити / скачати фільм українською



відео для новачків



 Зареєстрований:   2013-10-03 13:31
 Розмір:   25.67 GB 
 Оцінка фільму:   5.8/10 (Голосів: 6)
   
Ваш часовий пояс: GMT + 2 Години

Нова тема   Відповісти