Завантажити та скачати торренти українською


Сфера / Sphere (1998) 720p 2xUkr/Eng | Sub Eng

Нові коментарі

Нова тема   Відповісти
Автор Повідомлення
Anonymous 







2013-10-02 16:26  
Сфера / Sphere (1998) 720p 2xUkr/Eng | Sub Eng



Жанр: жахи, фантастика, трилер, драма, детектив
Країна: США



Кінокомпанія: Warner Bros., Baltimore Pictures, Constant c Productions
Режисер: Баррі Левінсон / Barry Levinson
Актори: Дастiн Гоффмен / Dustin Hoffman, Шерон Стоун / Sharon Stone, Семюель Л. Джексон / Samuel L. Jackson, Пітер Койот / Peter Coyote, Лів Шрайбер / Liev Schreiber, Куін Латіфа / Queen Latifah, Марга Гомес / Marga Gómez та інші

Сюжет:
Глибоко у водах Тихого океану американські військові знайшли можливо найбільшу в історії людства знахідку - величезний космічний корабель, що впав на Землю 300 років тому. Яке походження цього корабля? Можливо, на ньому збереглися якісь форми життя? Членам спеціальної підводної експедиції доручено дати відповіді на ці питання.
Фільм "Сфера", дія якого розгортається під водою, тримає вас у глибокій напрузі і відкриває нове вимірювання в жанрі трилера. Таємничий жах, з яким стикається підводна команда, залазить глибоко у підсвідомість.



Рейтинг MPAA: PG-13 - дітям до 13 років перегляд не бажаний
Вікова категорія: 12+


Тривалість: 02:14:12
Якість: 720p
Відео:
кодек:
розмір кадру: 1280x534
бітрейт: 5522 кбіт/с

Аудіо # 1:
мова: українська
переклад: багатоголосий закадровий
кодек: 5.1
бітрейт: 384 кбіт/с

ролі озвучили: Андрій Твердак (Дастін Гоффмен / Норман Гудмен), Владислав Пупков, Олесь Гімбаржевський та Лідія Муращенко


Аудіо # 2:
мова: українська
переклад: багатоголосий закадровий
кодек: 2.0
бітрейт: 192 кбіт/с

Аудіо # 3:
мова: англійська
переклад: оригінал
кодек: 5.1
бітрейт: 1536 кбіт/с

Аудіо # 3:
мова: англійська
переклад: коментарі
кодек: OGG
бітрейт: 80 кбіт/с

Субтитри :
мова: англійська
тип: програмні (м'які)
формат: *.srt

Збережено оригінальні розділи, як на Blu-ray.
MediaInfo
Код:
General
Unique ID                                : 239351927649462158806026858399366406723 (0xB4118124FDBE11EC9141AA774B106243)
Complete name                            : F:\Data6f\RelF\Sphere (1998) [2xUkr,Eng sub.Eng] 720p [Hurtom & HDCLUB].mkv
Format                                   : Matroska
Format version                           : Version 4 / Version 2
File size                                : 7.20 GiB
Duration                                 : 2h 14mn
Overall bit rate mode                    : Variable
Overall bit rate                         : 7 682 Kbps
Movie name                               : Сфера / Sphere (1998) 720p [Hurtom & HDCLUB]
Encoded date                             : UTC 2014-05-02 06:58:41
Writing application                      : mkvmerge v6.9.1 ('Blue Panther') 64bit built on Apr 18 2014 18:23:38
Writing library                          : libebml v1.3.0 + libmatroska v1.4.1

Video
ID                                       : 1
Format                                   : AVC
Format/Info                              : Advanced Video Codec
Format profile                           : [email protected]
Format settings, CABAC                   : Yes
Format settings, ReFrames                : 12 frames
Codec ID                                 : V_MPEG4/ISO/AVC
Duration                                 : 2h 14mn
Bit rate                                 : 5 522 Kbps
Width                                    : 1 280 pixels
Height                                   : 534 pixels
Display aspect ratio                     : 2.40:1
Frame rate mode                          : Constant
Frame rate                               : 23.976 fps
Color space                              : YUV
Chroma subsampling                       : 4:2:0
Bit depth                                : 8 bits
Scan type                                : Progressive
Bits/(Pixel*Frame)                       : 0.337
Stream size                              : 5.03 GiB (70%)
Title                                    : Сфера / Sphere (1998) 720p [HDCLUB]
Writing library                          : core 76 r1271M 496d79d
Encoding settings                        : cabac=1 / ref=12 / deblock=1:-2:-2 / analyse=0x3:0x133 / me=umh / subme=10 / psy=1 / psy_rd=1.0:0.3 / mixed_ref=1 / me_range=32 / chroma_me=1 / trellis=2 / 8x8dct=1 / cqm=0 / deadzone=6,6 / chroma_qp_offset=-4 / threads=3 / nr=0 / decimate=0 / mbaff=0 / bframes=16 / b_pyramid=0 / b_adapt=2 / b_bias=0 / direct=3 / wpredb=1 / keyint=250 / keyint_min=25 / scenecut=40 / rc_lookahead=250 / rc=2pass / mbtree=1 / bitrate=5522 / ratetol=1.0 / qcomp=0.80 / qpmin=10 / qpmax=51 / qpstep=4 / cplxblur=20.0 / qblur=0.5 / ip_ratio=1.10 / aq=1:0.60
Language                                 : English
Default                                  : Yes
Forced                                   : No

Audio #1
ID                                       : 2
Format                                   : AC-3
Format/Info                              : Audio Coding 3
Mode extension                           : CM (complete main)
Format settings, Endianness              : Big
Codec ID                                 : A_AC3
Duration                                 : 2h 14mn
Bit rate mode                            : Constant
Bit rate                                 : 384 Kbps
Channel(s)                               : 6 channels
Channel positions                        : Front: L C R, Side: L R, LFE
Sampling rate                            : 48.0 KHz
Bit depth                                : 16 bits
Compression mode                         : Lossy
Stream size                              : 369 MiB (5%)
Title                                    : MVO [K1] 5.1 384 kbps [Hurtom-MAKAPOHHIK]
Language                                 : Ukrainian
Default                                  : Yes
Forced                                   : Yes

Audio #2
ID                                       : 3
Format                                   : AC-3
Format/Info                              : Audio Coding 3
Mode extension                           : CM (complete main)
Format settings, Endianness              : Big
Codec ID                                 : A_AC3
Duration                                 : 2h 14mn
Bit rate mode                            : Constant
Bit rate                                 : 192 Kbps
Channel(s)                               : 2 channels
Channel positions                        : Front: L R
Sampling rate                            : 48.0 KHz
Bit depth                                : 16 bits
Compression mode                         : Lossy
Stream size                              : 184 MiB (2%)
Title                                    : MVO [ICTV] 2.0 192 kbps [Hurtom-patriot2305, Sando7]
Language                                 : Ukrainian
Default                                  : No
Forced                                   : No

Audio #3
ID                                       : 4
Format                                   :
Format/Info                              : Digital Theater Systems
Mode                                     : 16
Format settings, Endianness              : Big
Codec ID                                 : A_DTS
Duration                                 : 2h 14mn
Bit rate mode                            : Constant
Bit rate                                 : 1 510 Kbps
Channel(s)                               : 6 channels
Channel positions                        : Front: L C R, Side: L R, LFE
Sampling rate                            : 48.0 KHz
Bit depth                                : 24 bits
Compression mode                         : Lossy
Stream size                              : 1.42 GiB (20%)
Title                                    : Original 5.1 1536 kbps
Language                                 : English
Default                                  : No
Forced                                   : No

Audio #4
ID                                       : 5
Format                                   : Vorbis
Format settings, Floor                   : 1
Codec ID                                 : A_VORBIS
Duration                                 : 2h 14mn
Bit rate mode                            : Variable
Bit rate                                 : 80.0 Kbps
Channel(s)                               : 2 channels
Sampling rate                            : 48.0 KHz
Compression mode                         : Lossy
Stream size                              : 76.8 MiB (1%)
Title                                    : Сommentary OGG 2.0 80 kbps
Writing library                          : libVorbis 20090709 (UTC 2009-07-09)
Language                                 : English
Default                                  : No
Forced                                   : No

Text
ID                                       : 6
Format                                   : UTF-8
Codec ID                                 : S_TEXT/UTF8
Codec ID/Info                            : UTF-8 Plain Text
Title                                    : Eng full
Language                                 : English
Default                                  : No
Forced                                   : No

Menu
00:00:00.000                             : en:00:00:00.000
00:02:52.756                             : en:00:02:52.756
00:04:47.120                             : en:00:04:47.120
00:07:20.815                             : en:00:07:20.815
00:10:08.066                             : en:00:10:08.066
00:13:25.054                             : en:00:13:25.054
00:18:28.149                             : en:00:18:28.149
00:20:14.422                             : en:00:20:14.422
00:24:32.471                             : en:00:24:32.471
00:27:04.289                             : en:00:27:04.289
00:30:23.780                             : en:00:30:23.780
00:32:40.750                             : en:00:32:40.750
00:34:39.286                             : en:00:34:39.286
00:37:25.869                             : en:00:37:25.869
00:39:49.596                             : en:00:39:49.596
00:42:33.301                             : en:00:42:33.301
00:46:14.188                             : en:00:46:14.188
00:50:44.500                             : en:00:50:44.500
00:52:29.355                             : en:00:52:29.355
00:57:09.259                             : en:00:57:09.259
00:58:29.756                             : en:00:58:29.756
01:04:11.806                             : en:01:04:11.806
01:07:30.171                             : en:01:07:30.171
01:09:45.598                             : en:01:09:45.598
01:11:51.182                             : en:01:11:51.182
01:15:41.954                             : en:01:15:41.954
01:17:33.023                             : en:01:17:33.023
01:20:56.393                             : en:01:20:56.393
01:23:28.462                             : en:01:23:28.462
01:26:42.656                             : en:01:26:42.656
01:28:38.939                             : en:01:28:38.939
01:34:18.862                             : en:01:34:18.862
01:35:50.078                             : en:01:35:50.078
01:38:50.258                             : en:01:38:50.258
01:41:51.063                             : en:01:41:51.063
01:43:59.692                             : en:01:43:59.692
01:46:06.277                             : en:01:46:06.277
01:52:37.042                             : en:01:52:37.042
01:57:23.078                             : en:01:57:23.078
02:01:19.355                             : en:02:01:19.355
02:02:59.080                             : en:02:02:59.080
02:07:05.243                             : en:02:07:05.243
02:10:32.825                             : en:02:10:32.825




Джерела та подяки: &
ріп відео, оригінальні звук та субтитри - HDClub; українські доріжки - К1: MAKAPOHHIK - зведення, Romario_O та SweetN - запис з ТБ, ICTV - patriot2305 - зведення, Sando7 - запис з ТБ; український постер - hellforces (всі - Гуртом).

Особиста оцінка: 8 - мені сподобалося

02.05.2014 Реліз оновлено, додав озвучку від ICTV.




ЗАЛИШАЙТЕСЬ ЯКОМОГА ДОВШЕ НА РОЗДАЧІ!

СКАЧАВ САМ - ДАЙ СКАЧАТИ ІНШИМ


Срібний реліз (на рейтинг впливає 50% завантаженого)
 Трекер:    Зареєстрований   

Завантажити / скачати фільм українською



відео для новачків



 Зареєстрований:   2014-05-02 09:29
 Розмір:   7.2 GB 
 Оцінка фільму:   5.3/10 (Голосів: 23)
   
Інші релізи
   Сфера / Sphere (1998) patriot2305  4 / 0   1.46 GB   2014-01-23 19:15 
   Сфера / Sphere (1998) MAKAPOHHIK  2 / 0   1.46 GB   2009-12-30 17:36 
Virake 
Localize Team
Localize Team


З нами з: 07.07.09
Востаннє: 04.12.16
Повідомлень: 4051

2014-01-15 00:58  
хороший був фільм, шкода що недооцінений.

Додано через 2 хвилини 45 секунд:

до речі, ввечері 14 січня показували. озвучка ідентична?

Sando7 
Відео Гуртом - запис з ТБ
Відео Гуртом - запис з ТБ


З нами з: 04.05.09
Востаннє: 04.12.16
Повідомлень: 837

2014-04-27 00:07  
Virake написано:
до речі, ввечері 14 січня показували. озвучка ідентична?


інша, реліз з тим озвученням тут http://toloka.to/t53170

Anonymous 







2014-05-02 09:30  
Реліз оновлено, додав озвучку ICTV.
Virake 
Localize Team
Localize Team


З нами з: 07.07.09
Востаннє: 04.12.16
Повідомлень: 4051

2014-05-02 13:16  
igor911, молодець! дякую.
Ваш часовий пояс: GMT + 2 Години

Нова тема   Відповісти