Завантажити та скачати торренти українською


Singleton - Uncovered (2013) [FLAC] | Britpop / Indie

Нові коментарі

Нова тема   Відповісти
Останній раз роздавалося Gxost (2016-12-02)
Автор Повідомлення
muhomor 
VIP


З нами з: 04.12.11
Востаннє: 29.11.16
Повідомлень: 297

2013-10-01 12:14  
Singleton - Uncovered (2013) [FLAC] | Britpop / Indie

Singleton - Uncovered (2013) [FLAC] | Britpop / Indie


Стиль: Britpop / Indie
Країна, місто: Україна, Київ
Сайти: Офіційний сайт
Видавець: гурт видав диск за власний кошт
Виконавці:
Аліна Федорова - вокал
Сергій "Джим" Жемейцев - гітара
Нікіта Юдін - гітара
Дмитро Чудаков - бас
Віталій Єрмак - барабани

Пісні:
    01. Breathe In Breathe Out
    02. Drown
    03. Puzzle
    04. Surprises
    05. Northern Star
    06. Snowstorms and Hurricanes
    07. Not Your Part
    08. This Train
    09. All The Words
    10. I See The Land
Audiochecker

AUDIOCHECKER v2.0 beta (build 457) - by Dester - [email protected]
~~~~~~~~~~~~~~~~~~~~~~~~~~~~~~~~~~

Started at: вторник, 01. 10. 2013. - 12:58.01
10 files found

01 -===- D:\hurtom.com\Singleton - «Uncovered» (2013) (FLAC)\01 Singleton Breathe In Breathe Out.flac
Extracted successfully
Conclusion: this track is CDDA with probability 100%
Tempfile successfully deleted.

02 -===- D:\hurtom.com\Singleton - «Uncovered» (2013) (FLAC)\02 Singleton Drown.flac
Extracted successfully
Conclusion: this track is CDDA with probability 100%
Tempfile successfully deleted.

03 -===- D:\hurtom.com\Singleton - «Uncovered» (2013) (FLAC)\03 Singleton Puzzle.flac
Extracted successfully
Conclusion: this track is CDDA with probability 100%
Tempfile successfully deleted.

04 -===- D:\hurtom.com\Singleton - «Uncovered» (2013) (FLAC)\04 Singleton Surprises.flac
Extracted successfully
Conclusion: this track is CDDA with probability 100%
Tempfile successfully deleted.

05 -===- D:\hurtom.com\Singleton - «Uncovered» (2013) (FLAC)\05 Singleton Northern Star.flac
Extracted successfully
Conclusion: this track is CDDA with probability 100%
Tempfile successfully deleted.

06 -===- D:\hurtom.com\Singleton - «Uncovered» (2013) (FLAC)\06 Singleton Snowstorms And Hurricanes.flac
Extracted successfully
Conclusion: this track is CDDA with probability 100%
Tempfile successfully deleted.

07 -===- D:\hurtom.com\Singleton - «Uncovered» (2013) (FLAC)\07 Singleton Not Your Part.flac
Extracted successfully
Conclusion: this track is CDDA with probability 100%
Tempfile successfully deleted.

08 -===- D:\hurtom.com\Singleton - «Uncovered» (2013) (FLAC)\08 Singleton This Train.flac
Extracted successfully
Conclusion: this track is CDDA with probability 100%
Tempfile successfully deleted.

09 -===- D:\hurtom.com\Singleton - «Uncovered» (2013) (FLAC)\09 Singleton All The Words.flac
Extracted successfully
Conclusion: this track is CDDA with probability 100%
Tempfile successfully deleted.

10 -===- D:\hurtom.com\Singleton - «Uncovered» (2013) (FLAC)\10 Singleton I See The Land.flac
Extracted successfully
Conclusion: this track is CDDA with probability 100%
Tempfile successfully deleted.

Finished at: вторник, 01. 10. 2013. - 13:02.16 (operation time: 0:04.14)
Log

Exact Audio Copy V1.0 beta 3 from 29. August 2011

Отчёт EAC об извлечении, выполненном 1. октября 2013, 12:46

Singleton / Uncovered

Дисковод: ASUS DRW-2014S1T Adapter: 2 ID: 8

Режим чтения : Достоверность
Использование точного потока : Да
Отключение кэша аудио : Да
Использование указателей C2 : Нет

Коррекция смещения при чтении : 6
Способность читать области Lead-in и Lead-out : Нет
Заполнение пропущенных сэмплов тишиной : Да
Удаление блоков с тишиной в начале и конце : Нет
При вычислениях CRC использовались нулевые сэмплы : Да
Интерфейс : Встроенный Win32-интерфейс для Win NT/2000
Обработка зазоров : Добавлено к предыдущему треку

Выходной формат : Пользовательский кодировщик
Выбранный битрейт : 128 kBit/s
Качество : Высокий
Добавление ID3-тега : Нет
Утилита сжатия : C:\Program Files\Exact Audio Copy\Flac\flac.exe
Дополнительные параметры : -V -8 -T "Genre=%genre%" -T "Artist=%artist%" -T "Title=%title%" -T "Album=%albumtitle%" -T "Date=%year%" -T "Tracknumber=%tracknr%" -T "Comment=%comment%" %source%

TOC извлечённого CD

Трек | Старт | Длительность | Начальный сектор | Конечный сектор
---------------------------------------------------------------------
1 | 0:00.00 | 4:10.57 | 0 | 18806
2 | 4:10.57 | 3:52.03 | 18807 | 36209
3 | 8:02.60 | 3:37.72 | 36210 | 52556
4 | 11:40.57 | 3:42.24 | 52557 | 69230
5 | 15:23.06 | 3:59.29 | 69231 | 87184
6 | 19:22.35 | 4:14.56 | 87185 | 106290
7 | 23:37.16 | 3:35.71 | 106291 | 122486
8 | 27:13.12 | 4:29.37 | 122487 | 142698
9 | 31:42.49 | 4:52.16 | 142699 | 164614
10 | 36:34.65 | 3:58.14 | 164615 | 182478

Трек 1

Имя файла D:\Documents and Settings\user\Рабочий стол\«»—0–\01 Singleton Breathe In Breathe Out.wav

Длина предзазора 0:00:02.00

Пиковый уровень 97.4 %
Скорость извлечения 5.1 X
Качество трека 100.0 %
CRC теста 1FA4807A
CRC копии 1FA4807A
Копирование... OK

Трек 2

Имя файла D:\Documents and Settings\user\Рабочий стол\«»—0–\02 Singleton Drown.wav

Пиковый уровень 96.4 %
Скорость извлечения 4.9 X
Качество трека 99.9 %
CRC теста 9EB4F0E4
CRC копии 9EB4F0E4
Копирование... OK

Трек 3

Имя файла D:\Documents and Settings\user\Рабочий стол\«»—0–\03 Singleton Puzzle.wav

Пиковый уровень 99.6 %
Скорость извлечения 6.0 X
Качество трека 100.0 %
CRC теста 656EF5C3
CRC копии 656EF5C3
Копирование... OK

Трек 4

Имя файла D:\Documents and Settings\user\Рабочий стол\«»—0–\04 Singleton Surprises.wav

Пиковый уровень 96.5 %
Скорость извлечения 6.4 X
Качество трека 100.0 %
CRC теста 16CE2965
CRC копии 16CE2965
Копирование... OK

Трек 5

Имя файла D:\Documents and Settings\user\Рабочий стол\«»—0–\05 Singleton Northern Star.wav

Пиковый уровень 94.5 %
Скорость извлечения 6.1 X
Качество трека 99.9 %
CRC теста BD2B580A
CRC копии BD2B580A
Копирование... OK

Трек 6

Имя файла D:\Documents and Settings\user\Рабочий стол\«»—0–\06 Singleton Snowstorms And Hurricanes.wav

Пиковый уровень 97.9 %
Скорость извлечения 7.4 X
Качество трека 100.0 %
CRC теста F0394D90
CRC копии F0394D90
Копирование... OK

Трек 7

Имя файла D:\Documents and Settings\user\Рабочий стол\«»—0–\07 Singleton Not Your Part.wav

Пиковый уровень 95.9 %
Скорость извлечения 7.6 X
Качество трека 100.0 %
CRC теста 3D8179BE
CRC копии 3D8179BE
Копирование... OK

Трек 8

Имя файла D:\Documents and Settings\user\Рабочий стол\«»—0–\08 Singleton This Train.wav

Пиковый уровень 95.0 %
Скорость извлечения 8.1 X
Качество трека 100.0 %
CRC теста D174D472
CRC копии D174D472
Копирование... OK

Трек 9

Имя файла D:\Documents and Settings\user\Рабочий стол\«»—0–\09 Singleton All The Words.wav

Пиковый уровень 97.6 %
Скорость извлечения 8.5 X
Качество трека 100.0 %
CRC теста 94DA2CE6
CRC копии 94DA2CE6
Копирование... OK

Трек 10

Имя файла D:\Documents and Settings\user\Рабочий стол\«»—0–\10 Singleton I See The Land.wav

Пиковый уровень 95.1 %
Скорость извлечения 8.7 X
Качество трека 100.0 %
CRC теста A7E0CAB9
CRC копии A7E0CAB9
Копирование... OK

Ошибок не произошло

Конец отчёта

==== Контрольная сумма отчёта AB01EA7B246304217F28CCABA235324CA277C586101671A835278FF5CE9339E5 ====
Тривалість: 00:40:30
Мова: англійська
Аудіо-кодек: FLAC
Бітрейт: 989 кб/с
Джерело: ріп зроблено із власного компакт-диска
Додаткова інформація:


Якщо Ви справді бажаєте підтримати українське - після прослуховування, якщо музика вам сподобалась, придбайте ліцензійний диск. Підтримаймо вітчизняних виконавців!


Срібний реліз (на рейтинг впливає 50% завантаженого)
 Трекер:    Зареєстрований   

Завантажити / скачати українську музику



відео для новачків



 Зареєстрований:   2013-10-01 12:14
 Розмір:   287 MB 
 Оцінка музики:   7.8/10 (Голосів: 4)
   
Ваш часовий пояс: GMT + 2 Години

Нова тема   Відповісти