Завантажити та скачати торренти українською


Конфуцій / Confucius / Kong Zi (2010) 1080p Ukr/Chi | Sub Eng

Нові коментарі

Нова тема   Відповісти
Автор Повідомлення
Anonymous 







2013-10-01 08:28  
Конфуцій / Confucius / Kong Zi (2010) 1080p Ukr/Chi | Sub Eng



Жанр: драма, біографічний, історичний
Країна: Китай



Кінокомпанія: Beijing Dadi Century Limited, Dadi Entertainment, China Film
Режисер: Ху Мей / Mei Hu
Актори: Чоу Юнь-Фат, Цзяньбінь Чень, Чжоу Сюнь, Яо Лу, Жень Цюань, Ван Бань, Кайлі Чжан, Цзяо Хуан, Ран Чен, І Лу

Сюжет:
Китайський мудрець Конфуцій в епоху Войовничих царств, коли постійні війни роздирали Китай, надавав допомогу правителю царства Лу, сприяючи тому у відновленні його влади й могутності. У такий спосіб знаменитий філософ сподівався вберегти царство Лу від внутрішніх конфліктів і нескінченних воєн.
Але політична еліта царства виступила проти Конфуція, боячись втратити свою владу над правителем, який був у їхніх руках простою маріонеткою. Філософ приймає рішення вирушити у добровільне заслання і мандрує Китаєм, не втрачаючи своїх ідеалів миру та гармонії.


Вікова категорія: 16+

Тривалість: 02:04:53
Якість: 1080p
Відео:
кодек:
розмір кадру: 1920x818
бітрейт: 9500 кб/с

Аудіо # 1:
мова: українська | Управління міжнародних відносин Національної телекомпанії України
переклад: багатоголосий закадровий
кодек: 2.0
бітрейт: 192 кб/с

Аудіо # 2:
мова: китайська
переклад: оригінал
кодек: 5.1
бітрейт: 384 кб/с

Субтитри:
мова: англійська
тип: програмні (м'які)
формат: *.srt

Збережено оригінальні розділи, як на Blu-ray.
MediaInfo та
[info]: frame I:1203 Avg QP:15.82 size:230625
[info]: frame P:40847 Avg QP:17.87 size: 84008
[info]: frame B:137783 Avg QP:20.29 size: 37630


General
Unique ID : 193694241479901427583586296384316235711 (0x91B8276AB80AECB09C82C1A10EDFDFBF)
Complete name : Kong Zi (2010) [Ukr,Chi;sub.Eng] 1080p [Hurtom].mkv
Format : Matroska
Format version : Version 4 / Version 2
File size : 8.79 GiB
Duration : 2h 4mn
Overall bit rate : 10.1 Mbps
Movie name : Конфуцій / Confucius / Kong Zi / Конфуций (2010) 1080p [Hurtom]
Encoded date : UTC 2013-10-01 05:47:16
Writing application : mkvmerge v6.4.1 ('Omega Point') built on Sep 16 2013 22:05:10
Writing library : libebml v1.3.0 + libmatroska v1.4.1

Video
ID : 1
Format : AVC
Format/Info : Advanced Video Codec
Format profile : [email protected]
Format settings, CABAC : Yes
Format settings, ReFrames : 4 frames
Codec ID : V_MPEG4/ISO/AVC
Duration : 2h 4mn
Bit rate : 9 500 Kbps
Width : 1 920 pixels
Height : 818 pixels
Display aspect ratio : 2.35:1
Frame rate mode : Constant
Frame rate : 24.000 fps
Color space : YUV
Chroma subsampling : 4:2:0
Bit depth : 8 bits
Scan type : Progressive
Bits/(Pixel*Frame) : 0.252
Stream size : 8.11 GiB (92%)
Title : Конфуцій / Confucius / Kong Zi / Конфуций (2010) 1080p [Freesland-delia]
Writing library : core 133 r2334kMod a3ac64b
Encoding settings : cabac=1 / ref=4 / deblock=1:-2:-2 / analyse=0x3:0x113 / me=umh / subme=10 / psy=1 / fade_compensate=0.00 / psy_rd=0.90:0.05 / mixed_ref=1 / me_range=48 / chroma_me=1 / trellis=2 / 8x8dct=1 / cqm=0 / deadzone=21,11 / fast_pskip=0 / chroma_qp_offset=-3 / threads=6 / lookahead_threads=1 / sliced_threads=0 / nr=0 / decimate=1 / interlaced=0 / bluray_compat=0 / constrained_intra=0 / bframes=9 / b_pyramid=2 / b_adapt=2 / b_bias=0 / direct=3 / weightb=1 / open_gop=0 / weightp=2 / keyint=250 / keyint_min=24 / scenecut=40 / intra_refresh=0 / rc=2pass / mbtree=0 / bitrate=9500 / ratetol=1.0 / qcomp=0.75 / qpmin=0 / qpmax=69 / qpstep=4 / cplxblur=20.0 / qblur=0.5 / ip_ratio=1.40 / pb_ratio=1.30 / aq=1:0.80
Language : English
Default : Yes
Forced : No
Matrix coefficients : BT.709

Audio #1
ID : 2
Format : AC-3
Format/Info : Audio Coding 3
Mode extension : CM (complete main)
Format settings, Endianness : Big
Codec ID : A_AC3
Duration : 2h 4mn
Bit rate mode : Constant
Bit rate : 192 Kbps
Channel(s) : 2 channels
Channel positions : Front: L R
Sampling rate : 48.0 KHz
Bit depth : 16 bits
Compression mode : Lossy
Stream size : 172 MiB (2%)
Title : MVO [Pershyj] 2.0 192 kbps [Hurtom-Vasua95]
Language : Ukrainian
Default : Yes
Forced : No

Audio #2
ID : 3
Format : AC-3
Format/Info : Audio Coding 3
Mode extension : CM (complete main)
Format settings, Endianness : Big
Codec ID : A_AC3
Duration : 2h 4mn
Bit rate mode : Constant
Bit rate : 384 Kbps
Channel(s) : 6 channels
Channel positions : Front: L C R, Side: L R, LFE
Sampling rate : 48.0 KHz
Bit depth : 16 bits
Compression mode : Lossy
Stream size : 343 MiB (4%)
Title : Original
Language : Chinese
Default : No
Forced : No

Text
ID : 4
Format : UTF-8
Codec ID : S_TEXT/UTF8
Codec ID/Info : UTF-8 Plain Text
Title : Eng full
Language : English
Default : No
Forced : No

Menu
00:00:00.000 : en:00:00:00.000
00:13:42.875 : en:00:13:42.875
00:33:49.833 : en:00:33:49.833
00:50:48.666 : en:00:50:48.666
01:00:14.458 : en:01:00:14.458
01:17:00.708 : en:01:17:00.708
01:34:41.333 : en:01:34:41.333
01:50:48.458 : en:01:50:48.458






Джерела та подяки: &
ріп відео, оригінальні звук та англійські субтитри - delia (Freeisland); українська доріжка - Vasua95 - зведення та запис з ТБ (Гуртом).

ЗАЛИШАЙТЕСЬ ЯКОМОГА ДОВШЕ НА РОЗДАЧІ!

СКАЧАВ САМ - ДАЙ СКАЧАТИ ІНШИМ


 Трекер:    Зареєстрований   

Завантажити / скачати фільм українською



відео для новачків



 Зареєстрований:   2013-10-01 08:28
 Розмір:   8.79 GB 
 Оцінка фільму:   5/10 (Голосів: 18)
   
Інші релізи
   Конфуцій / Confucius / Kong Zi (2010) AngryBirdsUA  5 / 0   2.18 GB   2013-09-30 19:53 
Ваш часовий пояс: GMT + 2 Години

Нова тема   Відповісти