Завантажити та скачати торренти українською


Аліса в країні чудес / Alice in Wonderland (2010) 720p-mini (50fps)

Нові коментарі

Нова тема   Відповісти
Автор Повідомлення
Drool 
VIP


З нами з: 17.04.10
Востаннє: 07.12.16
Повідомлень: 1266

2013-09-30 12:16  
Аліса в країні чудес / Alice in Wonderland (2010) 720p-mini (50fps)

Жанр: пригодницький, сімейний, фентезі
Країна: США



Кінокомпанія: Walt Disney Pictures
Режисер: Тім Бaртон
Актори: Міа Васиковска, Джонні Деп, Хелена Бонем Картер, Енн Хетеуей,Кріспін Гловер, Метт Лукас, Стівен Фрай, Майкл Шин

Сюжет:
Життя 19-річної Аліси Кінгслі робить неочікуваний вихиляс. На вікторіанській вечірці, влаштованій на її честь, Алісі робить освідчення Хеміш, багатий, але дурнуватий син лорда и леді Ескот. Не даючи відповіді, дівчина втікає й іде за кроликом, що помітила на галявинці. Кролик як кролик, от лишень від одягнений у камзол й увесь час поглядає на кишеньковий годинник.

Аліса женеться за Білим Кроликом через весь луг и бачить, як він зникає в кролячій норі. Потім, неочікувано, Аліса падає туди сама, летить униз по дивному, казковому тунелю и приземлюється в круглій залі з безліччю дверей. Випивши з пляшки з написом «ВИПИЙ МЕНЕ», вона зменшується в размірах, а відкусивши від тістечка з написом «З'ЇЖ МЕНЕ» — виростає. Урашті, минуючи ряд лихих пригод, Аліса потрапляє через одну з дверей у чудесний фантастичний світ, який його мешканці називають Підземною країною.

Там її чекає цілий парад колоритних персонажів: хвацькувата Соня, божевільний Капелюшник, глуздливий Чеширський Кіт, накурена кальяном гусінь ім'я Абесалом, моторошнувата Біла Королева та її злісна сестра, Королева Червів, сварлива й дратівлива правителька Підземної країни.

Сюжет відомої кожному казки Льюїса Керола та улюблені актори у новому проекті Тіма Бартона "Аліса в Країні Чудес". На думку режисера, Країна Чудес - це зовсім не таке веселе і яскраве місце, як його описує Керолл. Це похмурий світ, в якому ростуть величезні поганки та страшні криві дерева. Тому Бартон змінив сюжет, але залишив атмосферу дитячої казки. Тож не пропустіть захопливих пригод Аліси у Задзеркаллі!


Тривалість: 01:42:50
Якість: 720p-mini
Відео:
кодек:
розмір кадру: 1280x720
бітрейт: 6885 кб/с
частота кадрів: 50.0 кадрів/с

Аудіо:
мова: українська
переклад: професійний дубльований
кодек: 5.1
бітрейт: 384 кб/с

Джерело озвучення:
MediaInfo
General
Unique ID : 124726695289258301284565067981792512714 (0x5DD57CDC048B83523079F49847C08ACA)
Complete name : ./Alice.in.Wonderland.2010.Ukr.Dub..720p-mini.50fps.mkv
Format : Matroska
Format version : Version 4 / Version 2
File size : 5.33 GiB
Duration : 1h 42mn
Overall bit rate : 7 417 Kbps
Movie name : Аліса в країні чудес / Alice in Wonderland (2010) 720p-mini 50fps | rip by DJonline
Encoded date : UTC 2010-02-22 21:41:31
Writing application : mkvmerge v6.1.0 ('Old Devil') built on Apr 14 2013 12:26:22
Writing library : libebml v1.3.0 + libmatroska v1.4.0

Video
ID : 1
Format : AVC
Format/Info : Advanced Video Codec
Format profile : [email protected]
Format settings, CABAC : Yes
Format settings, ReFrames : 3 frames
Codec ID : V_MPEG4/ISO/AVC
Duration : 1h 42mn
Bit rate : 6 885 Kbps
Width : 1 280 pixels
Height : 720 pixels
Display aspect ratio : 16:9
Frame rate : 50.000 fps
Original frame rate : 47.952 fps
Color space : YUV
Chroma subsampling : 4:2:0
Bit depth : 8 bits
Scan type : Progressive
Bits/(Pixel*Frame) : 0.149
Stream size : 4.95 GiB (93%)
Title : Аліса в країні чудес / Alice in Wonderland (2010) 720p-mini 50fps | rip by DJonline
Writing library : core 94 r1583kMod 7608d73
Encoding settings : cabac=1 / ref=3 / deblock=1:-1:-1 / analyse=0x3:0x13 / me=umh / subme=7 / psy=1 / psy_rd=1.00:0.10 / mixed_ref=1 / me_range=16 / chroma_me=1 / trellis=1 / 8x8dct=1 / cqm=0 / deadzone=21,11 / fast_pskip=1 / chroma_qp_offset=-3 / threads=2 / sliced_threads=1 / slices=2 / nr=0 / decimate=1 / interlaced=0 / constrained_intra=0 / bframes=0 / weightp=2 / keyint=250 / keyint_min=25 / scenecut=40 / intra_refresh=0 / rc=crf / mbtree=0 / crf=20.0000 / qcomp=0.60 / qpmin=10 / qpmax=51 / qpstep=4 / ip_ratio=1.40 / aq=1:1.00
Default : Yes
Forced : No

Audio
ID : 2
Format : AC-3
Format/Info : Audio Coding 3
Mode extension : CM (complete main)
Codec ID : A_AC3
Duration : 1h 42mn
Bit rate mode : Constant
Bit rate : 384 Kbps
Channel(s) : 6 channels
Channel positions : Front: L C R, Side: L R, LFE
Sampling rate : 48.0 KHz
Bit depth : 16 bits
Compression mode : Lossy
Stream size : 282 MiB (5%)
Title : Рідна мова
Language : Ukrainian
Default : Yes
Forced : No
Скріншоти








Походження: відеоряд взято з ріпу DJonline
Особиста оцінка: 10 - без зайвих вагань рекомендую всім!
Трішки менший зразок:


 Трекер:    Зареєстрований   

Завантажити / скачати фільм українською



відео для новачків



 Зареєстрований:   2013-09-30 13:02
 Розмір:   5.33 GB 
 Оцінка фільму:   9.3/10 (Голосів: 20)
   
NeetScrool 
Відео Гуртом - фільмокрай
Відео Гуртом - фільмокрай


З нами з: 10.01.13
Востаннє: 07.12.16
Повідомлень: 2219

2013-09-30 13:09  
50 fps не рідні?
Drool 
VIP


З нами з: 17.04.10
Востаннє: 07.12.16
Повідомлень: 1266

2013-09-30 13:19  
NeetScrool написано:
50 fps не рідні?

Звісно ні. Так само, як і тут.

Virake 
Localize Team
Localize Team


З нами з: 07.07.09
Востаннє: 08.12.16
Повідомлень: 4064

2013-09-30 14:50  
додайте в назву і заголовок 720p

Додано через 5 хвилин:

переглянув семпл. брр... краще з нормальним fps.

Drool 
VIP


З нами з: 17.04.10
Востаннє: 07.12.16
Повідомлень: 1266

2013-09-30 16:38  
Нормальний fps - це мінімальний показник, при якому око не помічає зміни кадру, однак мозок дуже каверзна штука, сприймає, поганець такий, до 40 кадрів на секунду.
Virake 
Localize Team
Localize Team


З нами з: 07.07.09
Востаннє: 08.12.16
Повідомлень: 4064

2013-09-30 18:06  
Drool, не знаю, в мене від таких "плавних" рухів втомлюються очі.
Drool 
VIP


З нами з: 17.04.10
Востаннє: 07.12.16
Повідомлень: 1266

2013-10-04 20:25  
Virake написано:
Drool, не знаю, в мене від таких "плавних" рухів втомлюються очі.

Колись, давно, я пересів з-за випуклого монітору за ще скляний, але плаский. Я тоді теж дивувався - як можна дивитись у цей тазік, це ж дурня - зображення ввігнуте в глибину і випукле по краях. Мозок з нами грає в свої ігри. В курсі, що ми бачимо світ догори дриґом?

Virake 
Localize Team
Localize Team


З нами з: 07.07.09
Востаннє: 08.12.16
Повідомлень: 4064

2013-10-04 20:37  
Drool, в курсі, в курсі.
NeetScrool 
Відео Гуртом - фільмокрай
Відео Гуртом - фільмокрай


З нами з: 10.01.13
Востаннє: 07.12.16
Повідомлень: 2219

2013-10-04 21:02  
Virake написано:
краще з нормальним fps.

Ігри вам теж краще грати із 24 fps чи все ж 40+ ?)

Virake 
Localize Team
Localize Team


З нами з: 07.07.09
Востаннє: 08.12.16
Повідомлень: 4064

2013-10-04 21:08  
NeetScrool, в іграх рендер в реальному часі. там від fps залежить, наскільки адекватно ти зможеш реагувати на витрибельки світу. це - абсолютно різні речі. не можна їх порівнювати, не враховуючи особливості речей (ігор та фільмів), про які йдеться.
Gvyntyk 
Свій


З нами з: 15.02.09
Востаннє: 04.12.16
Повідомлень: 107

2015-01-10 01:52  
«Нерідність» 50 к/с видно по рваній картинці. А ще не вдалося прикрутити титри, вони почали гальмувати за текстом; довелось вантажити інший реліз.
Володя Мейклавчик 
Новенький


З нами з: 23.01.12
Востаннє: 08.12.16
Повідомлень: 20

2015-01-10 22:12  
Фільм чудовий. Сюжет не здивував, але деталізація при такому fps виглядає просто супер.
Drool 
VIP


З нами з: 17.04.10
Востаннє: 07.12.16
Повідомлень: 1266

2015-01-10 22:20  
Gvyntyk написано:
1. «Нерідність» 50 к/с видно по рваній картинці.
2. А ще не вдалося прикрутити титри, вони почали гальмувати за текстом; довелось вантажити інший реліз.
1. Пора міняти залізо або розбиратися в чому справа, бо мій старенький комп нічого не рве.
2. Так, через 50fps, а не 60, тут інша тривалість відеоряду.

Ваш часовий пояс: GMT + 2 Години

Нова тема   Відповісти