Завантажити та скачати торренти українською


Нестримні 2 / The Expendables 2 (2012) 1080p Ukr/Eng | Sub Eng

Нові коментарі

Нова тема   Відповісти
Останній раз роздавалося Experien (2016-08-24)
Автор Повідомлення
Anonymous 







2013-09-29 18:55  
Нестримні 2 / The Expendables 2 (2012) 1080p Ukr/Eng | Sub Eng



Жанр: бойовик, трилер, пригодницький
Країна: США



Кінокомпанія: Millennium Films, Nu Image Films
Режисер: Саймон Вест / Simon West
Актори: Сильвестер Сталлоне / Sylvester Stallone, Джейсон Стетхем / Jason Statham, Джет Лі / Jet Li, Дольф Лундгрен / Dolph Lundgren, Чак Норріс / Chuck Norris, Террі Крюс, Ренді Кутюр, Ліам Гемсворт, Жан-Клод Ван Дамм / Jean-Claude Van Damme, Брюс Вілліс / Bruce Willis, Арнольд Шварценеґґер / Arnold Schwarzenegger

Сюжет:
Містер Чарч доручає команді Нестримних виконати, здавалося б, просту роботу. На перший погляд, для Барні та його банди досвідчених найманців, це завдання виглядає лише як легкий спосіб підзаробити. Але щось пішло не так і одного з команди жорстоко вбивають. Тепер, щоб помститися, Нестримні вирушають на ворожу територію, де всі ставки зроблено проти них.


Рейтинг MPAA: R - особам до 17 років обов'язкова присутність батьків або дорослого опікуна
Вікова категорія: 16+

Тривалість: 01:42:41
Якість: 1080p
Відео:
кодек:
розмір кадру: 1920x800
бітрейт: 13.9 Mbps

Аудіо # 1:
мова: українська
переклад: багатоголосий закадровий
кодек: 2.0
бітрейт: 192 кб/с

Аудіо # 2:
мова: англійська
переклад: оригінал
кодек: 5.1
бітрейт: 448 кб/с

Субтитри:
мова: англійська
тип: програмні (м'які)
формат: *.srt

Збережено оригінальні розділи, як на Blu-ray.
MediaInfo
General
Unique ID : 219440081142284345062807293712301969821 (0xA5169F50D3A8DC899C82D0EBC302519D)
Complete name : The Expendables 2 (2012) [Ukr,Eng;sub.Eng] 1080p [Hurtom].mkv
Format : Matroska
Format version : Version 4 / Version 2
File size : 10.6 GiB
Duration : 1h 42mn
Overall bit rate : 14.8 Mbps
Movie name : Нестримні 2 / The Expendables 2 / Неудержимые 2 (2012) 1080p [Hurtom]
Encoded date : UTC 2013-09-29 15:50:33
Writing application : mkvmerge v6.4.1 ('Omega Point') built on Sep 16 2013 22:05:10
Writing library : libebml v1.3.0 + libmatroska v1.4.1

Video
ID : 1
Format : AVC
Format/Info : Advanced Video Codec
Format profile : [email protected]
Format settings, CABAC : Yes
Format settings, ReFrames : 5 frames
Codec ID : V_MPEG4/ISO/AVC
Duration : 1h 42mn
Bit rate : 13.9 Mbps
Width : 1 920 pixels
Height : 800 pixels
Display aspect ratio : 2.40:1
Frame rate mode : Constant
Frame rate : 23.976 fps
Color space : YUV
Chroma subsampling : 4:2:0
Bit depth : 8 bits
Scan type : Progressive
Bits/(Pixel*Frame) : 0.376
Stream size : 9.94 GiB (94%)
Title : Нестримні 2 / The Expendables 2 / Неудержимые 2 (2012) 1080p [Neofilm]
Writing library : core 125 r2200 999b753
Encoding settings : cabac=1 / ref=5 / deblock=1:-3:-3 / analyse=0x3:0x113 / me=umh / subme=11 / psy=1 / psy_rd=1.05:0.05 / mixed_ref=1 / me_range=32 / chroma_me=1 / trellis=2 / 8x8dct=1 / cqm=0 / deadzone=21,11 / fast_pskip=0 / chroma_qp_offset=-3 / threads=12 / lookahead_threads=2 / sliced_threads=0 / nr=0 / decimate=1 / interlaced=0 / bluray_compat=0 / constrained_intra=0 / bframes=5 / b_pyramid=2 / b_adapt=2 / b_bias=0 / direct=3 / weightb=1 / open_gop=0 / weightp=2 / keyint=240 / keyint_min=23 / scenecut=40 / intra_refresh=0 / rc_lookahead=40 / rc=crf / mbtree=0 / crf=19.0 / qcomp=0.60 / qpmin=0 / qpmax=69 / qpstep=4 / vbv_maxrate=50000 / vbv_bufsize=62500 / crf_max=0.0 / nal_hrd=none / ip_ratio=1.40 / pb_ratio=1.30 / aq=2:0.70
Language : English
Default : Yes
Forced : No

Audio #1
ID : 2
Format : AC-3
Format/Info : Audio Coding 3
Mode extension : CM (complete main)
Format settings, Endianness : Big
Codec ID : A_AC3
Duration : 1h 42mn
Bit rate mode : Constant
Bit rate : 192 Kbps
Channel(s) : 2 channels
Channel positions : Front: L R
Sampling rate : 48.0 KHz
Bit depth : 16 bits
Compression mode : Lossy
Stream size : 141 MiB (1%)
Title : MVO [ICTV] 2.0 192 kbps [Hurtom-Gelios]
Language : Ukrainian
Default : Yes
Forced : No

Audio #2
ID : 3
Format : AC-3
Format/Info : Audio Coding 3
Mode extension : CM (complete main)
Format settings, Endianness : Big
Codec ID : A_AC3
Duration : 1h 42mn
Bit rate mode : Constant
Bit rate : 448 Kbps
Channel(s) : 6 channels
Channel positions : Front: L C R, Side: L R, LFE
Sampling rate : 48.0 KHz
Bit depth : 16 bits
Compression mode : Lossy
Stream size : 329 MiB (3%)
Title : Original
Language : English
Default : No
Forced : No

Text
ID : 4
Format : UTF-8
Codec ID : S_TEXT/UTF8
Codec ID/Info : UTF-8 Plain Text
Title : Eng full
Language : English
Default : No
Forced : No

Menu
00:00:00.000 : en:Chapter 00
00:10:04.227 : en:Chapter 01
00:18:06.210 : en:Chapter 02
00:24:55.660 : en:Chapter 03
00:28:44.013 : en:Chapter 04
00:31:32.640 : en:Chapter 05
00:39:11.681 : en:Chapter 06
00:48:54.389 : en:Chapter 07
00:54:35.396 : en:Chapter 08
00:59:25.103 : en:Chapter 09
01:04:30.908 : en:Chapter 10
01:07:15.239 : en:Chapter 11
01:13:43.251 : en:Chapter 12
01:20:18.521 : en:Chapter 13
01:28:27.844 : en:Chapter 14
01:31:25.271 : en:Chapter 15


Джерела та подяки:
ріп відео, оригінальні субтитри - neofilm (Neoclub); українська доріжка - Gelios - зведення, OlegCena - запис з ТБ; український постер - Gelios (всі - Гуртом).

ЗАЛИШАЙТЕСЬ ЯКОМОГА ДОВШЕ НА РОЗДАЧІ!

СКАЧАВ САМ - ДАЙ СКАЧАТИ ІНШИМ


 Трекер:    Зареєстрований   

Завантажити / скачати фільм українською



відео для новачків



 Зареєстрований:   2013-09-29 18:55
 Розмір:   10.61 GB 
 Оцінка фільму:   5.4/10 (Голосів: 25)
   
Інші релізи
   Нестримні 2 / The Expendables 2 (2012) 720p Ukr/Eng | Sub Eng kino.  4 / 0   5.87 GB   2013-09-29 17:37 
   Нестримні 2 / The Expendables 2 (2012) Ukr/Eng | Sub Eng Gelios  8 / 0   1.77 GB   2013-09-29 15:11 
   Нестримні 2 / The Expendables 2 (2012) | Mic legos25  1 / 0   1.67 GB   2013-05-22 22:52 
   Нестримні 2 / The Expendables 2 (2012) Ukr/Eng | Sub Ukr/Eng BOOGud  7 / 0   1.55 GB   2012-10-14 21:16 
braveboy 
Відео Гуртом - команда HD
Відео Гуртом - команда HD


З нами з: 15.06.10
Востаннє: 29.10.16
Повідомлень: 958

2013-09-29 19:02  
викладіть окремо звукову доріжку
Anonymous 







2013-09-29 19:34  
Закинув на сервер доріжок.
braveboy 
Відео Гуртом - команда HD
Відео Гуртом - команда HD


З нами з: 15.06.10
Востаннє: 29.10.16
Повідомлень: 958

2013-09-29 19:37  
igor911 написано:
Закинув на сервер доріжок.

спасибі

Angel*Of*DeatH 
Новенький


З нами з: 24.11.11
Востаннє: 04.12.16
Повідомлень: 20

2013-10-05 14:14  
о, нарешті укр. переклад, на іншому дивитись не було сенсу) .....цілий рік всі гудуть про фільм, тепер я буду "в темі")
Ua.bos_01 
VIP


З нами з: 22.06.15
Востаннє: 06.12.16
Повідомлень: 1291

2015-08-14 16:30  
Логічне продовження попередньої саги улюблених акторів всіх часів і народів! Мені сподобалось.
Ваш часовий пояс: GMT + 2 Години

Нова тема   Відповісти