Завантажити та скачати торренти українською


Виховання почуттів / An Education (2009) 720p Ukr/Eng | Sub Ukr/Eng

Нові коментарі

Нова тема   Відповісти
Автор Повідомлення
Anonymous 







2013-09-29 18:02  
Виховання почуттів / An Education (2009) 720p Ukr/Eng | Sub Ukr/Eng



Жанр: драма
Країна: Велика Британія, США



Кінокомпанія: BBC Films, Finola Dwyer Productions, Wildgaze Films
Режисер: Лоне Шерфіґ
Актори: Кері Малліґан, Пітер Сарсґаард, Домінік Купер, Розамунд Пайк, Емма Томпсон, Олівія Вільямс, Альфред Моліна, Кера Сеймур, Вільям Меллінґ, Коннор Кечпол

Сюжет:
У тихе життя шістнадцятирічної Лінн несподівано уриваються бурхливі шестидесяті в особі Девіда. Йому 35, але не дивлячись на різницю у віці, Девід щосили залицяється до дівчини, водить її в розкішні ресторани, клуби і бере з собою в закордонну поїздку. Батько дівчини перебуває в захваті від нового знайомого доньки, але під загрозу потрапляє освіта Лінн в Оксфорді...


Рейтинг MPAA: PG-13 - дітям до 13 років перегляд не бажаний
Вікова категорія: 12+

Тривалість: 01:40:21
Якість: 720p
Відео:
кодек:
розмір кадру: 1280x544
бітрейт: 6923 кб/с

Аудіо # 1:
мова: українська
переклад: двоголосий закадровий
кодек: 2.0
бітрейт: 192 кб/с

Аудіо # 2:
мова: англійська
переклад: оригінал
кодек: 5.1
бітрейт: 640 кб/с

Аудіо # 3:
мова: англійська
переклад: коментарі
кодек: OGG
бітрейт: 80 кб/с

Субтитри# 1:
мова: українська
тип: програмні (м'які)
формат: *.srt

Субтитри# 2:
мова: англійська
тип: програмні (м'які)
формат: *.srt
MediaInfo
General
Unique ID : 219840042527439008387062411027902786014 (0xA563A6EF3B7AA73F830B9713FC6269DE)
Complete name : An Education (2009) [Ukr,Eng;sub.Ukr,Eng] 720p [Hurtom].mkv
Format : Matroska
Format version : Version 4 / Version 2
File size : 5.60 GiB
Duration : 1h 40mn
Overall bit rate mode : Variable
Overall bit rate : 7 994 Kbps
Movie name : Виховання почуттів / An Education / Воспитание чувств (2009) 720p [Hurtom]
Encoded date : UTC 2013-09-29 15:05:05
Writing application : mkvmerge v6.4.1 ('Omega Point') built on Sep 16 2013 22:05:10
Writing library : libebml v1.3.0 + libmatroska v1.4.1

Video
ID : 1
Format : AVC
Format/Info : Advanced Video Codec
Format profile : [email protected]
Format settings, CABAC : Yes
Format settings, ReFrames : 9 frames
Codec ID : V_MPEG4/ISO/AVC
Duration : 1h 40mn
Bit rate : 6 923 Kbps
Width : 1 280 pixels
Height : 544 pixels
Display aspect ratio : 2.35:1
Frame rate mode : Constant
Frame rate : 23.976 fps
Color space : YUV
Chroma subsampling : 4:2:0
Bit depth : 8 bits
Scan type : Progressive
Bits/(Pixel*Frame) : 0.415
Stream size : 4.85 GiB (87%)
Title : Виховання почуттів / An Education / Воспитание чувств (2009) 720p [CtrlHD]
Language : English
Default : Yes
Forced : No

Audio #1
ID : 2
Format : AC-3
Format/Info : Audio Coding 3
Mode extension : CM (complete main)
Format settings, Endianness : Big
Codec ID : A_AC3
Duration : 1h 40mn
Bit rate mode : Constant
Bit rate : 192 Kbps
Channel(s) : 2 channels
Channel positions : Front: L R
Sampling rate : 48.0 KHz
Bit depth : 16 bits
Compression mode : Lossy
Stream size : 138 MiB (2%)
Title : DVO [Novyj] 2.0 192 kbps [Hurtom-Gelios]
Language : Ukrainian
Default : Yes
Forced : No

Audio #2
ID : 3
Format : AC-3
Format/Info : Audio Coding 3
Mode extension : CM (complete main)
Format settings, Endianness : Big
Codec ID : A_AC3
Duration : 1h 40mn
Bit rate mode : Constant
Bit rate : 640 Kbps
Channel(s) : 6 channels
Channel positions : Front: L C R, Side: L R, LFE
Sampling rate : 48.0 KHz
Bit depth : 16 bits
Compression mode : Lossy
Stream size : 459 MiB (8%)
Title : Original 5.1 640 Kbps
Language : English
Default : No
Forced : No

Audio #3
ID : 4
Format : Vorbis
Format settings, Floor : 1
Codec ID : A_VORBIS
Duration : 1h 40mn
Bit rate mode : Variable
Bit rate : 80.0 Kbps
Channel(s) : 2 channels
Sampling rate : 48.0 KHz
Compression mode : Lossy
Stream size : 57.4 MiB (1%)
Title : Commentary Vorbis 2.0 80 Kbps
Writing library : libVorbis 20090709 (UTC 2009-07-09)
Language : English
Default : No
Forced : No

Text #1
ID : 5
Format : UTF-8
Codec ID : S_TEXT/UTF8
Codec ID/Info : UTF-8 Plain Text
Title : Ukr full
Language : Ukrainian
Default : No
Forced : No

Text #2
ID : 6
Format : UTF-8
Codec ID : S_TEXT/UTF8
Codec ID/Info : UTF-8 Plain Text
Title : Eng full
Language : English
Default : No
Forced : No


Джерела та подяки:
ріп відео - CtrlHD; українська доріжка - Gelios - зведення, OlegCena та ratbol - запис з ТБ; українські субтитри - fazza (idx+sub), розпізнавання - Gelios, український постер - Gelios (всі - Гуртом).

ЗАЛИШАЙТЕСЬ ЯКОМОГА ДОВШЕ НА РОЗДАЧІ!

СКАЧАВ САМ - ДАЙ СКАЧАТИ ІНШИМ


 Трекер:    Зареєстрований   

Завантажити / скачати фільм українською



відео для новачків



 Зареєстрований:   2013-09-29 18:02
 Розмір:   5.6 GB 
 Оцінка фільму:   4.4/10 (Голосів: 16)
   
Інші релізи
nejaka 
Свій


З нами з: 01.02.12
Востаннє: 17.11.16
Повідомлень: 72

2013-11-11 20:41  
хороший фільм. зачіпає. таки дійсно хороший. Акторська гра, епоха...сподобалось це. Це не зовсім соплива мелодрама про чергову лолітку...) дивитись!
bingo007447 
Частий відвідувач


З нами з: 02.04.10
Востаннє: 10.12.16
Повідомлень: 28

2013-12-09 03:01  
Скажіть будь-ласка, в цій роздачі точно багатоголоска чи все таки двох як в цій http://toloka.to/t50314 роздачі?
Ваш часовий пояс: GMT + 2 Години

Нова тема   Відповісти