Завантажити та скачати торренти українською


Скелелаз / Cliffhanger (1993) 1080p Ukr/Eng | sub Eng

Нові коментарі

Нова тема   Відповісти
Автор Повідомлення
Anonymous 







2013-09-28 22:33  
Скелелаз / Cliffhanger (1993) 1080p Ukr/Eng | sub Eng



Ще постери






Жанр: бойовик, трилер, пригодницький
Країна: США, Італія, Франція



Кінокомпанія: Carolco Pictures, Canal+, Pioneer
Режисер: Ренні Гарлін / Renny Harlin
Актори: Сильвестер Сталлоне / Sylvester Stallone, Джон Літґоу / John Lithgow, Майкл Рукер / Michael Rooker, Пол Вінфілд / Paul Winfield та інші

Сюжет:
У горах після снігової лавини загубилися п’ятеро людей. На пошуки вирушає один з найкращих альпіністів – Гейб Вокер. Несподівано він усвідомлює, що його навмисне заманили в гори для виконання іншого завдання.
Тепер очевидно, що Гейб стане небажаним свідком, якого позбудуться без вагань. Але так просто віддавати своє життя він не збирається, і оголошує війну банді озброєних до зубів бойовиків на чолі з міжнародним терористом Еріком Кваленом...


Рейтинг MPAA: R - особам до 17 років обов'язкова присутність батьків або дорослого опікуна
Вікова категорія: 16+

Тривалість: 01:53:00
Якість: 1080p
Відео:
кодек:
розмір кадру: 1920x798
бітрейт: 8290 кб/с

Аудіо # 1:
мова: українська
переклад: двоголосий закадровий
ролі озвучили: Олександр Завальський та Наталя Ярошенко
кодек: 2.0
бітрейт: 192 кб/с
примітка: по 1+1 та ТЕТ транслюється ідентичний переклад.

Аудіо # 2:
мова: англійська
переклад: оригінал
кодек: 5.1
бітрейт: 640 кб/с

Субтитри:
мова: англійська
тип: програмні (м'які)
формат: *.srt

Збережено оригінальні розділи, як на Blu-ray.
MediaInfo
General
Unique ID : 247116155120022966386630815858831248000 (0xB9E8D71D29D99A7D987BCDFC3AD9CA80)
Complete name : Cliffhanger (1993) [Ukr,Eng;sub.Eng] 1080p [Hurtom].mkv
Format : Matroska
Format version : Version 4 / Version 2
File size : 7.19 GiB
Duration : 1h 53mn
Overall bit rate : 9 105 Kbps
Movie name : Скелелаз / Cliffhanger / Скалолаз (1993) 1080p [Hurtom]
Encoded date : UTC 2013-09-27 16:39:38
Writing application : mkvmerge v6.4.1 ('Omega Point') built on Sep 16 2013 22:05:10
Writing library : libebml v1.3.0 + libmatroska v1.4.1

Video
ID : 1
Format : AVC
Format/Info : Advanced Video Codec
Format profile : [email protected]
Format settings, CABAC : Yes
Format settings, ReFrames : 4 frames
Codec ID : V_MPEG4/ISO/AVC
Duration : 1h 53mn
Bit rate : 8 290 Kbps
Width : 1 920 pixels
Height : 798 pixels
Display aspect ratio : 2.40:1
Frame rate mode : Constant
Frame rate : 23.976 fps
Color space : YUV
Chroma subsampling : 4:2:0
Bit depth : 8 bits
Scan type : Progressive
Bits/(Pixel*Frame) : 0.226
Stream size : 6.39 GiB (89%)
Title : Скелелаз / Cliffhanger / Скалолаз (1993) 1080p [envy]
Writing library : core 133 r2334 a3ac64b
Encoding settings : cabac=1 / ref=4 / deblock=1:-3:-3 / analyse=0x3:0x133 / me=umh / subme=11 / psy=1 / psy_rd=1.00:0.00 / mixed_ref=1 / me_range=48 / chroma_me=1 / trellis=2 / 8x8dct=1 / cqm=0 / deadzone=21,11 / fast_pskip=0 / chroma_qp_offset=-2 / threads=12 / lookahead_threads=1 / sliced_threads=0 / nr=0 / decimate=1 / interlaced=0 / bluray_compat=0 / constrained_intra=0 / bframes=6 / b_pyramid=2 / b_adapt=2 / b_bias=0 / direct=3 / weightb=1 / open_gop=0 / weightp=2 / keyint=240 / keyint_min=23 / scenecut=40 / intra_refresh=0 / rc=2pass / mbtree=0 / bitrate=8290 / ratetol=2.0 / qcomp=0.60 / qpmin=0 / qpmax=69 / qpstep=4 / cplxblur=20.0 / qblur=0.5 / ip_ratio=1.40 / pb_ratio=1.30 / aq=1:0.70
Language : English
Default : Yes
Forced : No

Audio #1
ID : 2
Format : AC-3
Format/Info : Audio Coding 3
Mode extension : CM (complete main)
Format settings, Endianness : Big
Codec ID : A_AC3
Duration : 1h 53mn
Bit rate mode : Constant
Bit rate : 192 Kbps
Channel(s) : 2 channels
Channel positions : Front: L R
Sampling rate : 48.0 KHz
Bit depth : 16 bits
Compression mode : Lossy
Stream size : 155 MiB (2%)
Title : DVO [2+2] 2.0 192 kbps [Hurtom-robotron005]
Language : Ukrainian
Default : Yes
Forced : No

Audio #2
ID : 3
Format : AC-3
Format/Info : Audio Coding 3
Mode extension : CM (complete main)
Format settings, Endianness : Big
Codec ID : A_AC3
Duration : 1h 53mn
Bit rate mode : Constant
Bit rate : 640 Kbps
Channel(s) : 6 channels
Channel positions : Front: L C R, Side: L R, LFE
Sampling rate : 48.0 KHz
Bit depth : 16 bits
Compression mode : Lossy
Stream size : 517 MiB (7%)
Title : Original
Language : English
Default : No
Forced : No

Text
ID : 4
Format : UTF-8
Codec ID : S_TEXT/UTF8
Codec ID/Info : UTF-8 Plain Text
Title : Eng Full
Language : English
Default : No
Forced : No

Menu
00:00:00.000 : :Chapter 01
00:12:09.979 : :Chapter 02
00:19:15.195 : :Chapter 03
00:30:03.760 : :Chapter 04
00:38:24.969 : :Chapter 05
00:48:16.810 : :Chapter 06
00:57:24.774 : :Chapter 07
01:06:04.961 : :Chapter 08
01:16:15.654 : :Chapter 09
01:24:32.650 : :Chapter 10
01:34:21.072 : :Chapter 11
01:44:06.823 : :Chapter 12


Джерела та подяки:
ріп відео, оригінальні звук та субтитри - envy (рутор); українська доріжка - robotron005 - зведення, karvai0 та Romario_O - запис з ТБ; українські постери - Zubr139, Shkval (всі - Гуртом).

Особиста оцінка: 8 - мені сподобалося

ЗАЛИШАЙТЕСЬ ЯКОМОГА ДОВШЕ НА РОЗДАЧІ!

СКАЧАВ САМ - ДАЙ СКАЧАТИ ІНШИМ


Срібний реліз (на рейтинг впливає 50% завантаженого)
 Трекер:    Зареєстрований   

Завантажити / скачати фільм українською



відео для новачків



 Зареєстрований:   2013-09-28 22:33
 Розмір:   7.19 GB 
 Оцінка фільму:   6/10 (Голосів: 23)
   
Інші релізи
   Скелелаз / Cliffhanger (1993) Ukr/Eng robotron005  3 / 0   2.03 GB   2012-10-17 17:42 
dima77777 
Поважний учасник


З нами з: 28.11.12
Востаннє: 07.12.16
Повідомлень: 198

2013-09-28 22:44  
Дуже дякую за фільм!
Anonymous 







2013-09-28 22:46  
Для подяк є кнопка "Дякую", натискайте її.
Sauber 
Новенький


З нами з: 19.10.08
Востаннє: 07.12.16
Повідомлень: 2

2013-12-08 22:56  
Мій улюблений фільм зі Сталлоне
Ваш часовий пояс: GMT + 2 Години

Нова тема   Відповісти