Завантажити та скачати торренти українською


Лише Бог прощає / Only God Forgives (2013) AVC Eng | sub Ukr

Нові коментарі

Нова тема   Відповісти
Останній раз роздавалося shpoka8 (2016-07-23)
Автор Повідомлення
DеLight 
Відео Гуртом - фільмокрай
Відео Гуртом - фільмокрай


З нами з: 24.08.11
Востаннє: 17.11.16
Повідомлень: 663

2013-09-27 19:00  
Лише Бог прощає / Only God Forgives (2013) AVC Eng | sub Ukr


Лише Бог прощає / Only God Forgives (2013) AVC Eng | sub Ukr

«Time to Meet The Devil»


Жанр: драма, кримінальний, трилер
Країна: Франція, Тайланд, США, Швеція





Кінокомпанія: A Grand Elephant, Bold Films, Film i Väst, Gaumont, Wild Bunch
Режисер: Ніколас Віндінґ Рефн / Nicolas Winding Refn
Актори: Раян Ґослінґ / Ryan Gosling, Крістін Скотт Томас / Kristin Scott Thomas, Вітгая Пансрінґарм / Vithaya Pansringarm, Ґордон Браун / Gordon Brown, Яїнґ Ргатга Пгонґам / Yayaying Rhatha Phongam, Том Берк / Tom Burke, Сагаяк Бунсанакіт / Sahajak Boonthanakit та інші

Сюжет:
Головний герой фільму, Джуліан, займається торгівлею наркотиків, процвітаючи у злочинному світі Банґкоку. Але пріоритети змінюються, коли мати змушує його знайти і розправитися з вбивцями його брата. На цьому шляху він зустрінеться з дуже дивним поліцейським.


Тривалість: 01:29:30
Якість: AVC

Відео:
кодек:
розмір кадру: 1024 x 554
бітрейт: 2 Мб/с

Аудіо:
мова: англійська
переклад: оригінал
кодек: 5.1
бітрейт: 448 кб/с

Субтитри:
мова: українська
тип: програмні (м'які)
формат: *.srt

Переклад з англійської - Delight


MediaInfo
Код:

General
Unique ID                      : 235568527336647080594825432233962856550 (0xB138D91B763E6089A555C48A728B6066)
Complete name                  : D:\Torrents\Only God Forgives (2013) AVC [Eng, sub Ukr] [Hurtom].mkv
Format                         : Matroska
Format version                 : Version 4 / Version 2
File size                      : 1.53 GiB
Duration                       : 1h 29mn
Overall bit rate               : 2 449 Kbps
Movie name                     : Only God Forgives (2013) AVC [Hurtom]
Encoded date                   : UTC 2013-09-26 17:55:49
Writing application            : mkvmerge v6.4.1 ('Omega Point') built on Sep 16 2013 22:05:10
Writing library                : libebml v1.3.0 + libmatroska v1.4.1

Video
ID                             : 1
Format                         : AVC
Format/Info                    : Advanced Video Codec
Format profile                 : [email protected]
Format settings, CABAC         : Yes
Format settings, ReFrames      : 9 frames
Codec ID                       : V_MPEG4/ISO/AVC
Duration                       : 1h 29mn
Bit rate                       : 2 000 Kbps
Width                          : 1 024 pixels
Height                         : 554 pixels
Display aspect ratio           : 1.85:1
Frame rate mode                : Constant
Frame rate                     : 23.976 fps
Color space                    : YUV
Chroma subsampling             : 4:2:0
Bit depth                      : 8 bits
Scan type                      : Progressive
Bits/(Pixel*Frame)             : 0.147
Stream size                    : 1.22 GiB (80%)
Title                          : Only God Forgives (2013) AVC [MediaClub-kaspr]
Writing library                : core 130 r2273 b3065e6
Encoding settings              : cabac=1 / ref=9 / deblock=1:-3:-3 / analyse=0x3:0x133 / me=umh / subme=11 / psy=1 / psy_rd=1.00:0.20 / mixed_ref=1 / me_range=48 / chroma_me=1 / trellis=2 / 8x8dct=1 / cqm=0 / deadzone=21,11 / fast_pskip=0 / chroma_qp_offset=-3 / threads=12 / lookahead_threads=3 / sliced_threads=0 / nr=0 / decimate=0 / interlaced=0 / bluray_compat=0 / constrained_intra=0 / bframes=10 / b_pyramid=2 / b_adapt=2 / b_bias=0 / direct=3 / weightb=1 / open_gop=0 / weightp=2 / keyint=240 / keyint_min=23 / scenecut=40 / intra_refresh=0 / rc=2pass / mbtree=0 / bitrate=2000 / ratetol=1.0 / qcomp=0.60 / qpmin=0 / qpmax=69 / qpstep=4 / cplxblur=20.0 / qblur=0.5 / ip_ratio=1.40 / pb_ratio=1.30 / aq=1:1.00
Language                       : English
Default                        : Yes
Forced                         : No

Audio
ID                             : 2
Format                         : AC-3
Format/Info                    : Audio Coding 3
Mode extension                 : CM (complete main)
Format settings, Endianness    : Big
Codec ID                       : A_AC3
Duration                       : 1h 29mn
Bit rate mode                  : Constant
Bit rate                       : 448 Kbps
Channel(s)                     : 6 channels
Channel positions              : Front: L C R, Side: L R, LFE
Sampling rate                  : 48.0 KHz
Bit depth                      : 16 bits
Compression mode               : Lossy
Stream size                    : 287 MiB (18%)
Title                          : 5.1; 448 kbps; original
Language                       : English
Default                        : Yes
Forced                         : No

Text
ID                             : 3
Format                         : UTF-8
Codec ID                       : S_TEXT/UTF8
Codec ID/Info                  : UTF-8 Plain Text
Title                          : full [translated by Delight]
Language                       : Ukrainian
Default                        : Yes
Forced                         : No

Menu
00:00:00.000                   : en:00:00:00.000
00:06:43.320                   : en:00:06:43.320
00:17:57.285                   : en:00:17:57.285
00:23:58.312                   : en:00:23:58.312
00:29:55.585                   : en:00:29:55.585
00:37:12.814                   : en:00:37:12.814
00:46:54.353                   : en:00:46:54.353
00:54:06.994                   : en:00:54:06.994
01:01:20.260                   : en:01:01:20.260
01:08:08.710                   : en:01:08:08.710
01:15:42.872                   : en:01:15:42.872
01:26:46.159                   : en:01:26:46.159

Скріншоти























Джерело:
Особиста оцінка: дуже специфічний трилер, захопив, якщо одним словом.


Золотий реліз (завантажене не впливає на рейтинг)
 Трекер:    Зареєстрований   

Завантажити / скачати фільм українською



відео для новачків



 Зареєстрований:   2013-09-27 19:00
 Розмір:   1.53 GB 
 Оцінка фільму:   8.2/10 (Голосів: 18)
   
nass38 
Новенький


З нами з: 26.01.12
Востаннє: 03.04.15
Повідомлень: 19

2013-09-27 19:29  
а українською не буде..?((
DеLight 
Відео Гуртом - фільмокрай
Відео Гуртом - фільмокрай


З нами з: 24.08.11
Востаннє: 17.11.16
Повідомлень: 663

2013-09-27 20:13  
nass38 написано:
а українською не буде..?

Не буде, принаймні найближчим часом.
Фільм не дуже насичений розмовами, так що легко дивиться мовою оригіналу.

yuranako 
VIP


З нами з: 03.11.10
Востаннє: 10.12.16
Повідомлень: 1139

2013-09-28 12:28  
Фільм має щось спільне із "Драйвом"? Чи зовсім інший фільм, але від того ж режисера і з тим же актором у головній ролі?
The_Marlboro 
Відео Гуртом - субтитрування
Відео Гуртом - субтитрування


З нами з: 23.05.10
Востаннє: 09.12.16
Повідомлень: 2854

2013-09-28 21:38  
yuranako написано:
Фільм має щось спільне із "Драйвом"? Чи зовсім інший фільм, але від того ж режисера і з тим же актором у головній ролі?

Я так зрозумів, що стилістика фільмів схожа, а сюжетно нічого спільного фільми не мають.

yavas_dm 
Новенький


З нами з: 10.09.10
Востаннє: 31.03.15
Повідомлень: 2

2013-09-29 11:47  
в одного мене не може найти пірів?
DеLight 
Відео Гуртом - фільмокрай
Відео Гуртом - фільмокрай


З нами з: 24.08.11
Востаннє: 17.11.16
Повідомлень: 663

2013-09-29 12:41  
yavas_dm
Зверніть увагу на свій рейтинг і почитайте тут http://toloka.to/t35477-90

kONJO 
Новенький


З нами з: 03.05.10
Востаннє: 09.12.16
Повідомлень: 19

2013-10-23 10:34  
ого! я й не сподівався!) красно дякую!
Jugerman 
Новенький


З нами з: 29.05.08
Востаннє: 09.12.16
Повідомлень: 19

2013-11-21 16:16  
yuranako
фільм затягнутий. проте, дуже атмосферний. режисер хотів, мабуть, проявити свій стиль, дещо схожий на тарантіно. йому не вдалось.
любителям творчості Раяна Гослінга дивитись однозначно

nejaka 
Свій


З нами з: 01.02.12
Востаннє: 17.11.16
Повідомлень: 72

2013-11-22 13:06  
нарешті))))))) фільм, кажуть, шикарний)принаймні, чекала на нього довго))) дяк!
mmstein 
Новенький


З нами з: 26.12.14
Востаннє: 06.12.16
Повідомлень: 2

2016-09-22 21:27  
Пошук пірів і нічого не качає (
Андрерад 
Частий відвідувач


З нами з: 09.06.14
Востаннє: 09.12.16
Повідомлень: 27

2016-10-04 18:46  
Дайте роздачу будь ласка. Класний фільм має бути
Ваш часовий пояс: GMT + 2 Години

Нова тема   Відповісти