Завантажити та скачати торренти українською


Природжені вбивці / Natural Born Killers (1994) 720p Ukr/Eng

Нові коментарі

Нова тема   Відповісти
Автор Повідомлення
TNT.KOT 
Відео Гуртом - субтитрування
Відео Гуртом - субтитрування


З нами з: 17.03.12
Востаннє: 10.12.16
Повідомлень: 116

2013-09-27 14:54  
Природжені вбивці / Natural Born Killers (1994) 720p Ukr/Eng

Природжені вбивці / Natural Born Killers (1994) 720p Ukr/Eng


Жанр: кримінальний, трилер, чорна комедія, драма,мелодрама
Країна: США



Кінокомпанія: Warner Brothers
Режисер: Олівер Стоун
Актори: Вуді Харрельсон, Джульєтт Люіс, Роберт Дауні мл, Томмі Лі Джонс, Том Сайзмор, Родні Денджерфілд, Рассел Мінс, Еверетт Куїнтон, Джаред Харріс, Прюїтт Тейлор Вінс
Автор сценарію :Квентін Тарантіно
Оператор: Роберт Річардсон
Сюжет: Пара молодих закоханих, Меллорі і Міккі, немов наслідуючи легендарним Бонні і Клайда, колесить по одноповерховій Америці й убиває всіх, хто попадається їм на шляху. Вони обожнюють один одного і ненавидять все інше людство. Їх схопили і саджають у саму люту кутузку.
Одначе черги безглуздих і трагічних збігів дає парочці природжених убивць ще один шанс повбивати усмак. І вони їм не впустили шанс покористуватися на всю котушку.
Цікаві Факти
Режисерський варіант має хронометраж 122 хвилини.
Персонажа Тома Сайзмора звуть Джек Скагнетті . У фільмі «Скажені пси » (1991) ( сценарій , до якого , також був написаний Тарантіно ) поліцейського наглядача Віка Веги звуть Сеймор Скагнетті .
Майкл Медсен розглядався на роль Міккі .
Сценарій до фільму був написаний Квентіном Тарантіно , але згодом був сильно перероблений Олівером Стоуном разом з Девідом Велосо і Річардом Рутовський . Перероблена версія не сподобалася Тарантіно , і він публічно відмовився від сценарію , попросивши видалити своє ім'я з титрів . Але в кінцевому рахунку , він погодився на : Історія Квентіна Тарантіно ( за сюжетом Квентіна Тарантіно ) .
Під час зйомок Джульєтт Льюїс по-справжньому зламала ніс Тому Сайзмора в сцені , де вона б'є Скагнетті головою об стіну.
Міккі і Меллорі вбивають копа по імені Гарольд Наш . У фільмі «Скажені пси » (1991) , копа якого катують і вбивають звуть Марвін Наш . Актор грав Марвіна Наша , Кірк Балцем , грає Роджера , члена знімальної групи в "Природжені вбивці" (1994).
Зелений колір використовується для того щоб відобразити помутніння в розумі Міккі , і з'являється перед найжорстокішими сценами. Наприклад , пиріг з лаймом в закусочній , зелена неонова вивіска на аптеці і т. д.
Сцена бунту знімалася у в'язниці , і « ув'язнені » у фільмі , насправді є її мешканцями , деякі з них навіть засуджені за вбивство.
У мами Меллорі ( Еді МакКлерг ) блакитні волосся , такі ж , як і в мами іншого психопата Алекса у фільмі « Заводний апельсин » (1971).
Міккі носить жіночу нижню білизну , у сцені з заручницею в кімнаті готелю .
Це був другий сценарій, написаний Квентіном Тарантіно ( перший був «Справжня любов » (1993 )) , який , як відомо , згодом був сильно переписаний Стоуном . Більшість людей подивилися фільм , і прочитали сценарій , вважають , що сценарій Тарантіно кращим фільму.
На зйомки пішло всього 56 днів.
Роберт Дауні мл . провів деякий час з австралійським королем сенсацій Стівом Данливи , для того щоб підготується на роль Уейна Гейла , і коли він повернувся з австралійським акцентом , вирішили , що він буде австралійцем .
Компанія Кока -кола схвалила використання їх реклами з білим ведмедем , які не повністю розібравшись , про що буде фільм. Але пізніше , коли рада директорів побачив закінчений продукт , вони просто прийшли в лють.
У номері готелю, де Міккі і Меллорі утримують заручницю , на екрані телевізора чергуються кадри з фільмів « Опівнічний експрес» ( 1978) Алана Паркера і « Обличчя зі шрамом » (1983) Брайана Де Пальма , зняті за сценарієм Олівера Стоуна .
Цей фільм був найулюбленішим у двох підлітків , які зчинили бійню в школі « Колумбайн ».
Фільм знімався не тільки на кіноплівку: новинні сцени зняті відеокамерами Betacam SP . Крім того, для зйомки окремих ефектних сцен використовувалися кінознімальні апарати 16-мм і «Супер-8» з подальшою оптичної печаткою . Основна частина фільму знімалася на 35-мм кіноплівку в кашетірованном форматі сферичної оптикою. Прокатні фільмокопії віддруковані в кашетірованном форматі зі співвідношенням сторін кадру 1,85:1. Оригінальна фонограма - оптична цифрова Dolby Digital
.
Бюджет 50 млн. $
Нагороди та номінаціїї
Нагороди
1994 - Венеціанський кінофестиваль
Спеціальний приз журі - Олівер Стоун
Краща актриса - Джульєтт Льюїс
Номінації
1995 - Премія «Золотий глобус»
Кращий режисер - Олівер Стоун
1995 - Премія «MTV Movie Awards»
Кращий поцілунок - Вуді Харрельсон, Джульєтт Льюїс
Кращий екранний дует - Вуді Харрельсон, Джульєтт Льюїс
Тривалість: 01:58:57
Якість:
Відео:
кодек:
розмір кадру: 1280 х 720
бітрейт: 4618 кб/с

Аудіо # 1:
мова: українська
переклад: двоголосий закадровий
кодек: 5.1
бітрейт: 384 кб/с

Аудіо # 2:
мова: англійська
переклад: оригінал
кодек: 5.1
бітрейт: 640 кб/с
MediaInfo
General
Unique ID : 235253343685613726215965163757565658092 (0xB0FC255A7F65E8458A55CCC2E38443EC)
Complete name : E:\kino\mobi\Natural Born Killers (1994).mkv
Format : Matroska
Format version : Version 2
File size : 4.69 GiB
Duration : 1h 58mn
Overall bit rate : 5 644 Kbps
Encoded date : UTC 2013-09-27 11:15:58
Writing application : mkvmerge v5.0.0 ('Die Wahre Liebe') built on Sep 25 2011 20:33:49
Writing library : libebml v1.2.2 + libmatroska v1.3.0

Video
ID : 1
Format : AVC
Format/Info : Advanced Video Codec
Format profile : [email protected]
Format settings, CABAC : Yes
Format settings, ReFrames : 5 frames
Codec ID : V_MPEG4/ISO/AVC
Duration : 1h 58mn
Bit rate : 4 618 Kbps
Width : 1 280 pixels
Height : 720 pixels
Display aspect ratio : 16:9
Frame rate mode : Constant
Frame rate : 23.976 fps
Color space : YUV
Chroma subsampling : 4:2:0
Bit depth : 8 bits
Scan type : Progressive
Bits/(Pixel*Frame) : 0.209
Stream size : 3.75 GiB (80%)
Writing library : core 59 r871 100d067
Encoding settings : cabac=1 / ref=5 / deblock=1:0:0 / analyse=0x3:0x113 / me=umh / subme=6 / brdo=1 / mixed_ref=1 / me_range=16 / chroma_me=1 / trellis=1 / 8x8dct=1 / cqm=0 / deadzone=21,11 / chroma_qp_offset=0 / threads=6 / nr=0 / decimate=1 / mbaff=0 / bframes=3 / b_pyramid=1 / b_adapt=1 / b_bias=0 / direct=1 / wpredb=1 / bime=1 / keyint=250 / keyint_min=25 / scenecut=40(pre) / rc=2pass / bitrate=4618 / ratetol=1.0 / rceq='blurCplx^(1-qComp)' / qcomp=1.00 / qpmin=10 / qpmax=51 / qpstep=4 / cplxblur=20.0 / qblur=0.5 / ip_ratio=1.40 / pb_ratio=1.30 / aq=2:1.00
Language : English
Default : Yes
Forced : No

Audio #1
ID : 2
Format : AC-3
Format/Info : Audio Coding 3
Mode extension : CM (complete main)
Format settings, Endianness : Big
Codec ID : A_AC3
Duration : 1h 58mn
Bit rate mode : Constant
Bit rate : 384 Kbps
Channel(s) : 6 channels
Channel positions : Front: L C R, Side: L R, LFE
Sampling rate : 48.0 KHz
Bit depth : 16 bits
Compression mode : Lossy
Stream size : 327 MiB (7%)
Default : Yes
Forced : No

Audio #2
ID : 3
Format : AC-3
Format/Info : Audio Coding 3
Mode extension : CM (complete main)
Format settings, Endianness : Big
Codec ID : A_AC3
Duration : 1h 58mn
Bit rate mode : Constant
Bit rate : 640 Kbps
Channel(s) : 6 channels
Channel positions : Front: L C R, Side: L R, LFE
Sampling rate : 48.0 KHz
Bit depth : 16 bits
Compression mode : Lossy
Stream size : 545 MiB (11%)
Default : No
Forced : No
Скріншоти

Подяка за звукову п.Romario_O

Джерело: &
Особиста оцінка: 8- І нащо вони знімають такі фільми? У Голлівуді що, цілуватися розучились?


Срібний реліз (на рейтинг впливає 50% завантаженого)
 Трекер:    Зареєстрований   

Завантажити / скачати фільм українською



відео для новачків



 Зареєстрований:   2013-09-27 14:54
 Розмір:   4.69 GB 
 Оцінка фільму:   9/10 (Голосів: 7)
   
Інші релізи
waldi-hurtom 
VIP


З нами з: 07.10.12
Востаннє: 10.12.16
Повідомлень: 613

2013-09-29 22:33  
Фільм дуже майстерний, з точки зору "чистого" мистецтва можна навіть сказати видатний. Але... це гімн безглуздій жорстокості. З таким саме успіхом можна захоплюватись газовими камерами чи комсомольськими трусами під час голодомору. Автори фільму показали самі себе між іншим у подобі журналіста. Ну, типу вис.ались собі на голову. Якщо сказати одним словом, цей фільм ЛАЙНО. Жахливе. Мистецькі сформована купка лайна. Не здивуюсь, якщо цей фільм був улюбленим для Брейвіка. 3 з 10.
P.S. Якщо хтось не прочитав цікаві факти вище, цитую: "Цей фільм був найулюбленішим у двох підлітків, які зчинили бійню в школі «Колумбайн»."

voldimer 
Новенький


З нами з: 15.07.12
Востаннє: 09.12.16
Повідомлень: 2

2014-08-05 10:40  
Станьте хтось на роздачу, будь ласка, бо доведеться російською качати.
Ваш часовий пояс: GMT + 2 Години

Нова тема   Відповісти