Завантажити та скачати торренти українською


Дівчата мрії / Dreamgirls (2006) BRip 720p 2xUkr/Eng | sub Eng

Нові коментарі

Нова тема   Відповісти
Автор Повідомлення
Anonymous 







2013-09-25 18:48  
Дівчата мрії / Dreamgirls (2006) BRip 720p 2xUkr/Eng | sub Eng



Альтернативні постери







Жанр: мюзикл, драма, музичний
Країна: США

2 Оскари, 3 Золотих глобуси, премії Британської кіноакадемії та Гільдії акторів

Кінокомпанія: DreamWorks SKG, Paramount Pictures, Laurence Mark Productions
Режисер: Білл Кондон / Bill Condon
Актори: Джеймі Фокс / Jamie Foxx, Бейонсе Ноулз / Beyoncé Knowles, Едді Мерфі / Eddie Murphy, Денні Гловер / Danny Glover, Дженніфер Хадсон / Jennifer Hudson, Аніка Ноні Роуз / Anika Noni Rose, Кейт Робінсон / Keith Robinson, Шарон Ліл / Sharon Leal, Хінтон Беттл / Hinton Battle, Мерайя І. Вілсон / Mariah I. Wilson та інші

Сюжет:
Ця стрічка — екранізація однойменного бродвейського мюзиклу. Три подруги з Чикаго — Еффі Вайт, роль якої виконує Дженніфер Хадсон, Діна Джонс (її зіграла Бейонс Ноулз) та Лорелл Робінсон (Аніка Ноні Роуз) вирішують створити окреме тріо і їдуть на музичний конкурс до Нью-Йорка. Там їх одразу помічає амбіційний і сповнений впевненості у власному вмінні творити зірок імпресаріо Кертіс Тейлор-молодший (Джеймі Фокс). Не шкодуючи грошей на розкрутку нової групи, Кертіс спочатку влаштовує дівчат бек-вокалістками до розкрученого співака Джеймса «Грому», в ролі якого витребенювався на сцені Едді Мерфі. Але незабаром три голосисті панянки відокремлюються від свого «фронтмена» і набувають шаленої популярності як окрема група. Лідером гурту є талановита, але трохи повнувата Еффі, і задля того, аби ще більше підвищити популярність гурту, Тейлор-молодший віддає першість більш привабливій Діні...
Історія
Сюжет «Дівчат мрії» ґрунтується на реальній історії групи "Сьюпрім", а прототипом Діни Джонс є знаменита співачка Дайана Росс.
У 1959 році 15-річна Дайана співала у дівчачому квартеті Primettes. Випустивши свій перший сингл, дівчата зацікавили керівника лейблу "Мотаун" Беррі Горді, який взяв над групою шефство. Згодом гурт перетворився на тріо і змінив назву на "Сьюпрімз". Дайана Росс у його складі спершу була на других ролях, оскільки за вокальними даними поступалася лідерці Флоренс Баллард і не перевершувала третю учасницю групи, Мері Вілсон. Однак Беррі Горді зауважив, що при цьому Росс наділена такими харизмою й темпераментом, яких бракує голосистішій Флоренс. Беррі "переформатував" групу, зробивши "першою зіркою" Дайану, і популярність "Сьюпрімз" стрімко зросла. За популярністю дівчата конкурували навіть із "Бітлз"...
Оскільки вся увага приділялась солістці, інші дівчата почувалися обділеними славою й ображеними. У 1967 році дійшло до того, що Флоренс Баллард кинула групу, яка перейменувалася у "Дайана Росс і сьюпрімз". Замість Флоренс прийшла Сінді Бердсон, однак цю зміну помітили тільки найуважніші прихильники групи, адже головне, що залишалася Дайана.
"Прима" оголосила про початок сольної кар'єри 24 серпня 1968 року, а у 1970-му покинула гурт остаточно. "Сьюпрімз" проіснували ще майже сім років, але після відходу Дайани про нього вже майже ніхто не чув...
Усі нагороди та номінації


Оскар, 2007 рік
Переможець (2):
Краща актриса другого плану (Дженніфер Хадсон)
Кращий звук


Номінації (6):
Кращий актор другого плану (Едді Мерфі),
Кращі декорації,
Кращі костюми,
Краща пісня (Listen),
Краща пісня (Love You I Do),
Краща пісня (Patience)



Золотий глобус, 2007 рік
Переможець (3):
Кращий фільм (комедія чи мюзикл)
Кращий актор другого плану (Едді Мерфі)
Краща актриса другого плану (Дженніфер Хадсон)


Номінації (2):
Краща жіноча роль (комедія чи мюзикл) (Бейонсе Ноулз)
Краща пісня (Listen)



Премія каналу MTV, 2007 рік
Номінації (2):
Кращий актор чи актриса (Дженніфер Хадсон)
Кращий актор чи актриса (Бейонсе Ноулз)


Дівчата мрії / Dreamgirls (2006) BRip 720p 2xUkr/Eng | sub Eng
Британська академія кіно та телевізійного мистецтва, 2007 рік
Переможець (1):
Краща актриса другого плану (Дженніфер Хадсон)


Номінації (1):
Премія ім. Ентоні Ескуіта за досягнення в створенні музики до фільму

Дівчата мрії / Dreamgirls (2006) BRip 720p 2xUkr/Eng | sub Eng
Премія Гільдії акторів, 2007 рік
Переможець (2):
Кращий актор другого плану (Едді Мерфі)
Краща актриса другого плану (Дженніфер Хадсон)


Номінації (1):
Кращий акторський склад


Рейтинг MPAA: PG-13 - дітям до 13 років перегляд не бажаний
Вікова категорія: 12+

Тривалість: 02:10:12
Якість: 720p
Відео:
кодек:
розмір кадру: 1280x544
бітрейт: 5200 кб/с

Аудіо # 1:
мова: українська - Так Треба Продакшн на замовлення ICTV
переклад: багатоголосий закадровий
кодек: 5.1
бітрейт: 384 кб/с

Аудіо # 2:
мова: українська - Так Треба Продакшн на замовлення Інтер
переклад: багатоголосий закадровий
кодек: 2.0
бітрейт: 160 кб/с

Аудіо # 3:
мова: англійська
переклад: оригінал
кодек: 5.1
бітрейт: 448 кб/с

Субтитри:
мова: англійська
тип: програмні (м'які)
формат: *.srt

Збережено оригінальні розділи, як на Blu-ray.
MediaInfo
General
Unique ID : 184498375275699077523989943115190305932 (0x8ACD18354F0723A0ABE4BEEB332F048C)
Complete name : Dreamgirls (2006) [2xUkr,Eng;sub.Eng] 720p [Hurtom & MediaClub].mkv
Format : Matroska
Format version : Version 4 / Version 2
File size : 5.63 GiB
Duration : 2h 10mn
Overall bit rate : 6 194 Kbps
Movie name : Дівчата мрії / Dreamgirls / Девушки мечты (2006) BRip 720p [Hurtom & MediaClub]
Encoded date : UTC 2013-09-22 06:16:06
Writing application : mkvmerge v6.4.1 ('Omega Point') built on Sep 16 2013 22:05:10
Writing library : libebml v1.3.0 + libmatroska v1.4.1

Video
ID : 1
Format : AVC
Format/Info : Advanced Video Codec
Format profile : [email protected]
Format settings, CABAC : Yes
Format settings, ReFrames : 9 frames
Codec ID : V_MPEG4/ISO/AVC
Duration : 2h 10mn
Bit rate : 5 200 Kbps
Width : 1 280 pixels
Height : 544 pixels
Display aspect ratio : 2.35:1
Frame rate mode : Constant
Frame rate : 23.976 fps
Color space : YUV
Chroma subsampling : 4:2:0
Bit depth : 8 bits
Scan type : Progressive
Bits/(Pixel*Frame) : 0.311
Stream size : 4.62 GiB (82%)
Title : Дівчата мрії / Dreamgirls / Девушки мечты (2006) BRip 720p [MediaClub-Painter]
Writing library : core 130 r2273 b3065e6
Encoding settings : cabac=1 / ref=9 / deblock=1:-3:-3 / analyse=0x3:0x133 / me=umh / subme=11 / psy=1 / psy_rd=1.00:0.20 / mixed_ref=1 / me_range=32 / chroma_me=1 / trellis=2 / 8x8dct=1 / cqm=0 / deadzone=21,11 / fast_pskip=0 / chroma_qp_offset=-3 / threads=6 / lookahead_threads=1 / sliced_threads=0 / nr=0 / decimate=0 / interlaced=0 / bluray_compat=0 / constrained_intra=0 / bframes=9 / b_pyramid=2 / b_adapt=2 / b_bias=0 / direct=3 / weightb=1 / open_gop=0 / weightp=2 / keyint=240 / keyint_min=23 / scenecut=40 / intra_refresh=0 / rc=2pass / mbtree=0 / bitrate=5200 / ratetol=1.0 / qcomp=0.60 / qpmin=0 / qpmax=69 / qpstep=4 / cplxblur=20.0 / qblur=0.5 / ip_ratio=1.40 / pb_ratio=1.30 / aq=1:1.00
Language : English
Default : Yes
Forced : No

Audio #1
ID : 2
Format : AC-3
Format/Info : Audio Coding 3
Mode extension : CM (complete main)
Format settings, Endianness : Big
Codec ID : A_AC3
Duration : 2h 10mn
Bit rate mode : Constant
Bit rate : 384 Kbps
Channel(s) : 6 channels
Channel positions : Front: L C R, Side: L R, LFE
Sampling rate : 48.0 KHz
Bit depth : 16 bits
Compression mode : Lossy
Stream size : 358 MiB (6%)
Title : MVO [TakTrebaProduction-ICTV] 5.1 384 kbps [Hurtom-Skiff]
Language : Ukrainian
Default : Yes
Forced : No

Audio #2
ID : 3
Format : AC-3
Format/Info : Audio Coding 3
Mode extension : CM (complete main)
Format settings, Endianness : Big
Codec ID : A_AC3
Duration : 2h 10mn
Bit rate mode : Constant
Bit rate : 160 Kbps
Channel(s) : 2 channels
Channel positions : Front: L R
Sampling rate : 48.0 KHz
Bit depth : 16 bits
Compression mode : Lossy
Stream size : 149 MiB (3%)
Title : MVO [TakTrebaProduction-Inter] 2.0 160 kbps [Hurtom-Breniak]
Language : Ukrainian
Default : No
Forced : No

Audio #3
ID : 4
Format : AC-3
Format/Info : Audio Coding 3
Mode extension : CM (complete main)
Format settings, Endianness : Big
Codec ID : A_AC3
Duration : 2h 10mn
Bit rate mode : Constant
Bit rate : 448 Kbps
Channel(s) : 6 channels
Channel positions : Front: L C R, Side: L R, LFE
Sampling rate : 48.0 KHz
Bit depth : 16 bits
Compression mode : Lossy
Stream size : 417 MiB (7%)
Title : Original
Language : English
Default : No
Forced : No

Text
ID : 5
Format : UTF-8
Codec ID : S_TEXT/UTF8
Codec ID/Info : UTF-8 Plain Text
Title : Eng full
Language : English
Default : No
Forced : No

Menu
00:00:00.000 : :Chapter 01
00:06:59.669 : :Chapter 02
00:14:13.309 : :Chapter 03
00:19:28.041 : :Chapter 04
00:26:58.782 : :Chapter 05
00:32:08.968 : :Chapter 06
00:39:12.099 : :Chapter 07
00:42:55.614 : :Chapter 08
00:48:46.340 : :Chapter 09
00:53:30.290 : :Chapter 10
00:56:47.112 : :Chapter 11
01:02:21.195 : :Chapter 12
01:07:29.045 : :Chapter 13
01:09:06.559 : :Chapter 14
01:12:28.886 : :Chapter 15
01:18:13.354 : :Chapter 16
01:23:58.198 : :Chapter 17
01:29:48.549 : :Chapter 18
01:36:16.687 : :Chapter 19
01:39:10.152 : :Chapter 20
01:43:40.339 : :Chapter 21
01:49:40.448 : :Chapter 22
01:54:14.722 : :Chapter 23
01:57:27.582 : :Chapter 24
02:00:35.228 : :Chapter 25
02:10:11.762 : :Chapter 26


Джерела та подяки: &
ріп відео, оригінальні звук та субтитри - Painter (MediaClub); українські доріжки: ICTV- Skiff - зведення, Merdiff - запис з ТБ, Інтер - Breniak - зведення, akon111 - запис з ТБ; український постер - thefir (всі - Гуртом).

ЗАЛИШАЙТЕСЬ ЯКОМОГА ДОВШЕ НА РОЗДАЧІ!

СКАЧАВ САМ - ДАЙ СКАЧАТИ ІНШИМ


 Трекер:    Зареєстрований   

Завантажити / скачати фільм українською



відео для новачків



 Зареєстрований:   2013-09-25 18:48
 Розмір:   5.63 GB 
 Оцінка фільму:   4.4/10 (Голосів: 17)
   
Інші релізи
   Дівчата мрії / Dreamgirls (2006) BRip 1080p 2xUkr/Eng | sub Eng igor911  2 / 0   9.08 GB   2013-09-25 17:44 
   Дівчата мрії / Dreamgirls (2006) BRip 2xUkr/Eng Breniak  1 / 0   2.36 GB   2012-12-26 21:58 
Ваш часовий пояс: GMT + 2 Години

Нова тема   Відповісти