Завантажити та скачати торренти українською


Дім літаючих кинджалів / Shi mian mai fu (2004) 720p-mini

Нові коментарі

Нова тема   Відповісти
Автор Повідомлення
Drool 
VIP


З нами з: 17.04.10
Востаннє: 07.12.16
Повідомлень: 1266

2013-09-23 20:36  
Дім літаючих кинджалів / Shi mian mai fu (2004) 720p-mini

Жанр: бойовик, пригоди, драма
Країна: Китай, Гонконг



Кінокомпанія: Beijing New Picture Film Co., China Film Co-Production Corporation, EDKO Film Ltd., Elite Group Enterprises, Zhang Yimou Studio
Режисер: Чжан Імоу
Актори: Такеші Канешіро, Енді Лау, Чжан Цзі, Сун Даньдань, Чжао Хунфей, Джан Гуо, Шу Чжан, Джіушен Ванг, Чжан Чжен'юн, Ван Юнсінь та ін.

Сюжет:
Красива історія кохання воїна Джинома (Такеші Каніширо) і його вірної подруги (Джанг Зію) на тлі чудової, чарівної природи. Джином до останньої краплі крові готовий захищати прекрасну дівчину-бунтарку, яку йому випало супроводжувати в небезпечній подорожі. Раптом воїн розуміє, що за відданістю молодій жінці стоїть інше і сильніше почуття - любов. Молодих з усіх боків переслідують небезпеки, навколо плетуться підступні інтриги, вороги тільки й чекають випадку, щоб напасти. За любов їм доводиться запекло боротися, але для них це не проблема, адже вони володіють всіма мислимими й немислимими прийомами східних єдиноборств.


Тривалість: 01:59:31
Якість: 720p-mini
Відео:
кодек:
розмір кадру: 1280x542
бітрейт: 2169 кб/с

Аудіо:
мова: українська
переклад: двоголосий закадровий
кодек: 2.0
бітрейт: 192 кб/с

Джерело озвучення:
MediaInfo
General
Unique ID : 76647271491638589574262410962092766380 (0x39A9BA3F8BBBD2E0F5B3937BB30D34AC)
Complete name : /mnt/router/Torrents/Shi.Mian.Mai.Fu.2004.Ukr.DVO..720p-mini.UAGet.mkv
Format : Matroska
File size : 1.96 GiB
Duration : 1h 59mn
Overall bit rate : 2 343 Kbps
Movie name : Дім літаючих кинджалів / Shi mian mai fu / House of Flying Daggers (2004) 720 -=UAGet=-
Encoded date : UTC 2013-09-23 18:09:22
Writing application : mkvmerge v4.8.0 ('I Got The...') built on Aug 22 2011 13:16:28
Writing library : libebml v1.2.0 + libmatroska v1.1.0

Video
ID : 1
Format : AVC
Format/Info : Advanced Video Codec
Format profile : [email protected]
Format settings, CABAC : Yes
Format settings, ReFrames : 8 frames
Codec ID : V_MPEG4/ISO/AVC
Duration : 1h 59mn
Bit rate : 2 169 Kbps
Width : 1 280 pixels
Height : 542 pixels
Display aspect ratio : 2.35:1
Frame rate mode : Variable
Frame rate : 23.976 fps
Color space : YUV
Chroma subsampling : 4:2:0
Bit depth : 8 bits
Scan type : Progressive
Bits/(Pixel*Frame) : 0.130
Stream size : 1.76 GiB (90%)
Title : Дім літаючих кинджалів (2004) 720 -=UAGet=-
Writing library : core 128
Encoding settings : cabac=1 / ref=9 / deblock=1:-3:-3 / analyse=0x3:0x133 / me=umh / subme=11 / psy=1 / psy_rd=1,00:0,20 / mixed_ref=1 / me_range=32 / chroma_me=1 / trellis=2 / 8x8dct=1 / cqm=0 / deadzone=21,11 / fast_pskip=0 / chroma_qp_offset=-3 / threads=6 / lookahead_threads=1 / sliced_threads=0 / nr=0 / decimate=1 / interlaced=0 / bluray_compat=0 / constrained_intra=0 / bframes=9 / b_pyramid=1 / b_adapt=2 / b_bias=0 / direct=3 / weightb=1 / open_gop=0 / weightp=2 / keyint=240 / keyint_min=24 / scenecut=40 / intra_refresh=0 / rc=2pass / mbtree=0 / bitrate=2169 / ratetol=1,0 / qcomp=1,00 / qpmin=4 / qpmax=69 / qpstep=4 / cplxblur=20,0 / qblur=0,5 / ip_ratio=1,40 / pb_ratio=1,30 / aq=2:0,60
Color primaries : BT.709-5, BT.1361, IEC 61966-2-4, SMPTE RP177
Transfer characteristics : BT.709-5, BT.1361
Matrix coefficients : BT.709-5, BT.1361, IEC 61966-2-4 709, SMPTE RP177

Audio
ID : 2
Format : AC-3
Format/Info : Audio Coding 3
Mode extension : CM (complete main)
Codec ID : A_AC3
Duration : 1h 59mn
Bit rate mode : Constant
Bit rate : 192 Kbps
Channel(s) : 2 channels
Channel positions : Front: L R
Sampling rate : 48.0 KHz
Bit depth : 16 bits
Compression mode : Lossy
Stream size : 164 MiB (8%)
Title : Українська (двоголосий закадровий) | Новий канал
Language : Ukrainian
Скріншоти








Джерело:
Подяка за постер: somnambula
Подяка за звук: d919
Особиста оцінка: 10 - без зайвих вагань рекомендую всім!


Срібний реліз (на рейтинг впливає 50% завантаженого)
 Трекер:    Зареєстрований   

Завантажити / скачати фільм українською



відео для новачків



 Зареєстрований:   2013-09-23 20:36
 Розмір:   1.96 GB 
 Оцінка фільму:   10/10 (Голосів: 10)
   
Інші релізи
Drool 
VIP


З нами з: 17.04.10
Востаннє: 07.12.16
Повідомлень: 1266

2013-09-23 20:44  
Ріп робився мною під доріжку 448 kb/s і розмір 1/2 від DVD5. Тут доріжка менше, тому і такий розмір. Нажаль, ріпувалось ще 14.01.2013, тому ні Info, ні, тим паче, порівняльних скріншотів не лишилось.
d919 
VIP


З нами з: 18.03.11
Востаннє: 05.05.16
Повідомлень: 480

2013-09-23 21:11  
міг би хоть вказати звідки звук)
Drool 
VIP


З нами з: 17.04.10
Востаннє: 07.12.16
Повідомлень: 1266

2013-09-23 21:14  
d919 написано:
міг би хоть вказати звідки звук)

DONE

Ваш часовий пояс: GMT + 2 Години

Нова тема   Відповісти