Завантажити та скачати торренти українською


Місяць 44 / Moon 44 (1990) 1080p Ukr/Eng | Sub Eng

Нові коментарі

Нова тема   Відповісти
Автор Повідомлення
Anonymous 







2013-09-23 20:25  
Місяць 44 / Moon 44 (1990) 1080p Ukr/Eng | Sub Eng



Альтернативні постери





Жанр: фантастика, бойовик, трилер
Країна: Німеччина



Кінокомпанія: Centropolis Film Productions, Overseas FilmGroup
Режисер: Роланд Еммеріх / Roland Emmerich
Актори: Майкл Паре (Michael Paré), Ліса Еікгорн (Lisa Eichhorn), Дін Делвін (Dean Devlin), Малькольм МакДауел (Malcolm McDowell) та інші.

Сюжет:
Галактична Гірничодобувна Корпорація отримує інформацію про те, що їх роботи викрадаються з Місяця-44, і відправляє на станцію детектива Стоуна для розслідування. Стоун змушений діяти під прикриттям в якості одного з ув'язнених, яких відправляють на Місяць 44, щоб пілотувати спеціальні гелікоптери. Але він не знає, що командир станції майор Лі проінструктований - у разі нападу на Місяць-44 пожертвувати людьми заради порятунку роботів. І коли детектив вистежує зрадників, йому доводиться битися на два фронти, намагаючись врятувати і людей, і роботів від знищення.


Рейтинг MPAA: R - особам до 17 років обов'язкова присутність батьків або дорослого опікуна
Вікова категорія: 16+

Тривалість: 01:39:18
Якість: 1080p
Відео:
кодек:
розмір кадру: 1920x816
бітрейт: 11.0 Mbps

Аудіо # 1:
мова: українська
переклад: двоголосий закадровий
ролі озвучили: Олег Лепенець та один жіночий голос
кодек: 2.0
бітрейт: 192 кб/с

Аудіо # 2:
мова: англійська
переклад: оригінал
кодек: 2.0
бітрейт: 192 кб/с

Субтитри:
мова: англійська
тип: програмні (м'які)
формат: *.srt

Збережено оригінальні розділи, як на Blu-ray.
MediaInfo та
[info]: frame I:1078 Avg QP:18.32 size:158123
[info]: frame P:33998 Avg QP:19.73 size: 80733
[info]: frame B:107926 Avg QP:21.25 size: 49121
======================================================================================
General
Unique ID : 251411757858727846813450277270947263677 (0xBD2424AE33C7F841B3CB979E259274BD)
Complete name : Moon 44 (1990) [Ukr,Eng;sub.Eng] 1080p [Hurtom].mkv
Format : Matroska
Format version : Version 4 / Version 2
File size : 7.92 GiB
Duration : 1h 39mn
Overall bit rate : 11.4 Mbps
Movie name : Місяць 44 / Moon 44 / Луна 44 (1990) 1080p [Hurtom]
Encoded date : UTC 2013-09-23 16:18:50
Writing application : mkvmerge v6.4.1 ('Omega Point') built on Sep 16 2013 22:05:10
Writing library : libebml v1.3.0 + libmatroska v1.4.1

Video
ID : 1
Format : AVC
Format/Info : Advanced Video Codec
Format profile : [email protected]
Format settings, CABAC : No
Format settings, ReFrames : 5 frames
Codec ID : V_MPEG4/ISO/AVC
Duration : 1h 39mn
Bit rate : 11.0 Mbps
Width : 1 920 pixels
Height : 816 pixels
Display aspect ratio : 2.35:1
Frame rate mode : Constant
Frame rate : 24.000 fps
Color space : YUV
Chroma subsampling : 4:2:0
Bit depth : 8 bits
Scan type : Progressive
Bits/(Pixel*Frame) : 0.294
Stream size : 7.50 GiB (95%)
Title : Місяць 44 / Moon 44 / Луна 44 (1990) 1080p [Freeisland-Skylark]
Writing library : core 138 r2358 9e941d1
Encoding settings : cabac=0 / ref=5 / deblock=1:-1:-1 / analyse=0x3:0x133 / me=umh / subme=10 / psy=1 / psy_rd=1.00:0.00 / mixed_ref=1 / me_range=32 / chroma_me=1 / trellis=2 / 8x8dct=1 / cqm=0 / deadzone=21,11 / fast_pskip=0 / chroma_qp_offset=-2 / threads=6 / lookahead_threads=1 / sliced_threads=0 / nr=0 / decimate=1 / interlaced=0 / bluray_compat=0 / constrained_intra=0 / bframes=8 / b_pyramid=2 / b_adapt=2 / b_bias=0 / direct=3 / weightb=1 / open_gop=0 / weightp=2 / keyint=240 / keyint_min=24 / scenecut=40 / intra_refresh=0 / rc_lookahead=50 / rc=2pass / mbtree=0 / bitrate=11044 / ratetol=2.0 / qcomp=1.00 / qpmin=0 / qpmax=51 / qpstep=4 / cplxblur=20.0 / qblur=0.5 / vbv_maxrate=50000 / vbv_bufsize=62500 / nal_hrd=none / ip_ratio=1.30 / pb_ratio=1.20 / aq=1:1.00
Language : English
Default : Yes
Forced : No
Color primaries : BT.709
Transfer characteristics : BT.709
Matrix coefficients : BT.709

Audio #1
ID : 2
Format : AC-3
Format/Info : Audio Coding 3
Mode extension : CM (complete main)
Format settings, Endianness : Big
Codec ID : A_AC3
Duration : 1h 39mn
Bit rate mode : Constant
Bit rate : 192 Kbps
Channel(s) : 2 channels
Channel positions : Front: L R
Sampling rate : 48.0 KHz
Bit depth : 16 bits
Compression mode : Lossy
Stream size : 136 MiB (2%)
Title : DVO [2+2] 2.0 192 kbps [Hurtom-robotron005]
Language : Ukrainian
Default : Yes
Forced : No

Audio #2
ID : 3
Format : AC-3
Format/Info : Audio Coding 3
Mode extension : CM (complete main)
Format settings, Endianness : Big
Codec ID : A_AC3
Duration : 1h 39mn
Bit rate mode : Constant
Bit rate : 192 Kbps
Channel(s) : 2 channels
Channel positions : Front: L R
Sampling rate : 48.0 KHz
Bit depth : 16 bits
Compression mode : Lossy
Stream size : 136 MiB (2%)
Title : Original
Language : English
Default : No
Forced : No

Text
ID : 4
Format : UTF-8
Codec ID : S_TEXT/UTF8
Codec ID/Info : UTF-8 Plain Text
Title : Eng full
Language : English
Default : No
Forced : No

Menu
00:00:00.000 : en:00:00:00.000
00:05:45.292 : en:00:05:45.292
00:11:09.708 : en:00:11:09.708
00:14:59.000 : en:00:14:59.000
00:21:13.250 : en:00:21:13.250
00:24:47.917 : en:00:24:47.917
00:30:05.417 : en:00:30:05.417
00:37:56.417 : en:00:37:56.417
00:42:54.417 : en:00:42:54.417
00:46:18.375 : en:00:46:18.375
00:53:50.958 : en:00:53:50.958
01:00:58.583 : en:01:00:58.583
01:07:23.625 : en:01:07:23.625
01:13:34.125 : en:01:13:34.125
01:16:26.000 : en:01:16:26.000
01:23:39.375 : en:01:23:39.375
01:33:21.292 : en:01:33:21.292
01:35:46.833 : en:01:35:46.833


Джерела та подяки: &
ріп відео, оригінальні звук та субтитри, українська доріжка - з релізу Skylark (Freeisland); першоджерело української доріжки - robotron005 - запис та зведення (OlegCena - також записував з ТБ, а НТН брав на зведення) (всі - Гуртом).

ЗАЛИШАЙТЕСЬ ЯКОМОГА ДОВШЕ НА РОЗДАЧІ!

СКАЧАВ САМ - ДАЙ СКАЧАТИ ІНШИМ


Срібний реліз (на рейтинг впливає 50% завантаженого)
 Трекер:    Зареєстрований   

Завантажити / скачати фільм українською



відео для новачків



 Зареєстрований:   2013-09-23 20:25
 Розмір:   7.92 GB 
 Оцінка фільму:   3.6/10 (Голосів: 14)
   
Інші релізи
   Місяць 44 / Moon 44 (1990) Ukr/Eng НТН  6 / 0   1.45 GB   2013-09-23 12:20 
Ваш часовий пояс: GMT + 2 Години

Нова тема   Відповісти