Завантажити та скачати торренти українською


Сімейка Крудсів / The Croods (2013) AVC | sub Ukr/Eng

Нові коментарі

Нова тема   Відповісти
Автор Повідомлення
DеLight 
Відео Гуртом - фільмокрай
Відео Гуртом - фільмокрай


З нами з: 24.08.11
Востаннє: 17.11.16
Повідомлень: 664

2013-09-23 18:34  
Сімейка Крудсів / The Croods (2013) AVC | sub Ukr/Eng


Сімейка Крудсів / The Croods (2013) AVC | sub Ukr/Eng


Blu-ray Disc




Жанр: анімація, пригодницький, комедія
Країна: США



Кінокомпанія: DreamWorks Animation
Режисер: Кірк Де Мікко / Kirk De Micco, Кріс Сандерс / Chris Sanders
Актори: Ніколас Кейдж / Nicolas Cage, Емма Стоун / Emma Stone, Раян Рейнольдс / Ryan Reynolds, Кетрін Кінер / Catherine Keener, Клорiс Лічмен / Cloris Leachman, Кларк Дюк / Clark Duke, Кріс Сандерс / Chris Sanders

Сюжет:
Ґраґ, глава первісного сімейства Крудсів - великий ретроград і консерватор. Будь його воля, усі так і просиділи б все життя не відходячи далеко від їх печери, проте після землетрусу їм довелося відправитися на пошуки нового дому. По дорозі до них приєднується парубок, що йде в ногу з часом і використовує всілякі новомодні штучки. Чи варто говорити, що такий сучасний хлопець вмить закрутив голову старшій доньці Ґраґа.


Тривалість: 01:38:37
Якість: AVC

Відео:
кодек:
розмір кадру: 1024 x 432
бітрейт: 1 658 кб/с

Аудіо:
мова: українська
переклад: професійний дубльований | Postmodern
кодек: 5.1
бітрейт: 448 кб/с

Субтитри:
мова: українська, англійська
тип: програмні (м'які)
формат: *.srt


Трейлери




MediaInfo
Код:

General
Unique ID                      : 174490918333342760973203327911955845702 (0x8345BA7CA0EACAB89FECC29D1D20D246)
Complete name                  : D:\Torrents\The Croods (2013) AVC [Ukr] [Hurtom].mkv
Format                         : Matroska
Format version                 : Version 4 / Version 2
File size                      : 1.45 GiB
Duration                       : 1h 38mn
Overall bit rate               : 2 108 Kbps
Movie name                     : The Croods (2013) AVC [Hurtom]
Encoded date                   : UTC 2013-09-23 16:47:23
Writing application            : mkvmerge v6.4.1 ('Omega Point') built on Sep 16 2013 22:05:10
Writing library                : libebml v1.3.0 + libmatroska v1.4.1

Video
ID                             : 1
Format                         : AVC
Format/Info                    : Advanced Video Codec
Format profile                 : [email protected]
Format settings, CABAC         : Yes
Format settings, ReFrames      : 9 frames
Codec ID                       : V_MPEG4/ISO/AVC
Duration                       : 1h 38mn
Bit rate                       : 1 658 Kbps
Width                          : 1 024 pixels
Height                         : 432 pixels
Display aspect ratio           : 2.40:1
Frame rate mode                : Constant
Frame rate                     : 23.976 fps
Color space                    : YUV
Chroma subsampling             : 4:2:0
Bit depth                      : 8 bits
Scan type                      : Progressive
Bits/(Pixel*Frame)             : 0.156
Stream size                    : 1.11 GiB (77%)
Title                          : The Croods (2013) AVC
Writing library                : core 130 r2273 b3065e6
Encoding settings              : cabac=1 / ref=9 / deblock=1:-3:-3 / analyse=0x3:0x133 / me=esa / subme=11 / psy=1 / psy_rd=1.00:0.20 / mixed_ref=1 / me_range=48 / chroma_me=1 / trellis=2 / 8x8dct=1 / cqm=0 / deadzone=21,11 / fast_pskip=0 / chroma_qp_offset=-3 / threads=12 / lookahead_threads=2 / sliced_threads=0 / nr=0 / decimate=0 / interlaced=0 / bluray_compat=0 / constrained_intra=0 / bframes=10 / b_pyramid=2 / b_adapt=2 / b_bias=0 / direct=3 / weightb=1 / open_gop=0 / weightp=2 / keyint=250 / keyint_min=23 / scenecut=40 / intra_refresh=0 / rc=2pass / mbtree=0 / bitrate=1658 / ratetol=1.0 / qcomp=0.60 / qpmin=0 / qpmax=69 / qpstep=4 / cplxblur=20.0 / qblur=0.5 / ip_ratio=1.40 / pb_ratio=1.30 / aq=1:1.00
Language                       : English
Default                        : Yes
Forced                         : No

Audio
ID                             : 2
Format                         : AC-3
Format/Info                    : Audio Coding 3
Mode extension                 : CM (complete main)
Format settings, Endianness    : Big
Codec ID                       : A_AC3
Duration                       : 1h 38mn
Bit rate mode                  : Constant
Bit rate                       : 448 Kbps
Channel(s)                     : 6 channels
Channel positions              : Front: L C R, Side: L R, LFE
Sampling rate                  : 48.0 KHz
Bit depth                      : 16 bits
Compression mode               : Lossy
Stream size                    : 316 MiB (21%)
Title                          : 5.1; 448 kbps; Dub [Postmodern]
Language                       : Ukrainian
Default                        : Yes
Forced                         : No

Text #1
ID                             : 3
Format                         : UTF-8
Codec ID                       : S_TEXT/UTF8
Codec ID/Info                  : UTF-8 Plain Text
Title                          : full
Language                       : Ukrainian
Default                        : No
Forced                         : No

Text #2
ID                             : 4
Format                         : UTF-8
Codec ID                       : S_TEXT/UTF8
Codec ID/Info                  : UTF-8 Plain Text
Title                          : full
Language                       : English
Default                        : No
Forced                         : No

Menu
00:00:00.000                   : en:00:00:00.000
00:02:34.988                   : en:00:02:34.988
00:04:51.750                   : en:00:04:51.750
00:09:01.249                   : en:00:09:01.249
00:12:21.115                   : en:00:12:21.115
00:14:04.802                   : en:00:14:04.802
00:18:33.029                   : en:00:18:33.029
00:21:56.982                   : en:00:21:56.982
00:23:24.737                   : en:00:23:24.737
00:26:49.775                   : en:00:26:49.775
00:28:37.132                   : en:00:28:37.132
00:30:25.657                   : en:00:30:25.657
00:32:48.633                   : en:00:32:48.633
00:36:03.370                   : en:00:36:03.370
00:38:33.561                   : en:00:38:33.561
00:41:34.534                   : en:00:41:34.534
00:44:38.843                   : en:00:44:38.843
00:48:02.630                   : en:00:48:02.630
00:52:10.961                   : en:00:52:10.961
00:55:17.481                   : en:00:55:17.481
01:00:14.778                   : en:01:00:14.778
01:03:58.084                   : en:01:03:58.084
01:05:48.736                   : en:01:05:48.736
01:08:44.037                   : en:01:08:44.037
01:10:47.285                   : en:01:10:47.285
01:12:37.144                   : en:01:12:37.144
01:14:01.646                   : en:01:14:01.646
01:19:48.575                   : en:01:19:48.575
01:23:09.860                   : en:01:23:09.860
01:25:16.737                   : en:01:25:16.737
01:28:04.321                   : en:01:28:04.321
01:30:02.230                   : en:01:30:02.230

Скріншоти

























Джерело:


 Трекер:    Зареєстрований   

Завантажити / скачати мультфільм українською



відео для новачків



 Зареєстрований:   2013-09-23 18:53
 Розмір:   1.45 GB 
 Оцінка мультфільму:   9.7/10 (Голосів: 64)
   
Інші релізи
bot 
робот


З нами з: 30.09.07
Востаннє: 26.05.05
Повідомлень: 15982

2013-09-23 18:51  
Тему перенесено з Анонси релізів від Відео Гуртом до форуму Мультфільми


Delight`

FreeGuest 
VIP


З нами з: 12.01.12
Востаннє: 01.12.16
Повідомлень: 271

2013-09-23 19:05  
Дуже дякую за реліз.
P.S.Невже ліцензія!?

ivan vyrvyvuho 
VIP


З нами з: 19.08.12
Востаннє: 04.12.16
Повідомлень: 836

2013-09-23 19:05  
А звичайне АВІ на 1.45 буде?
11FrYkT дякую, а то я вже забув про анонс.

11FrYkT 
Модератор відео


З нами з: 20.02.11
Востаннє: 04.12.16
Повідомлень: 3080

2013-09-23 19:08  
ivan vyrvyvuho , в анонсах, правда не знаю розмір
Kundo 
Частий відвідувач


З нами з: 01.02.12
Востаннє: 04.12.16
Повідомлень: 46

2013-09-23 19:56  
це чудовий мультфільм. я всім батька його раджу до обов'язкового перегляду разом з дітьми. тут є все - видовище, гумор, пригоди, сімейні цінності. це така приємна та корисна розвага. з великим нетерпінням чекаємо на продовження!
Bagum 
Новенький


З нами з: 11.12.11
Востаннє: 25.11.16
Повідомлень: 10

2013-09-23 20:17  
Згоден з Кundo! Рекомендую! Хе) Ще й показує коріння проблеми зять & теща на зорі людства!! - дуже потішило, старша донька зрозуміла!
Gelios 
Відео Гуртом - дизайнер
Відео Гуртом - дизайнер


З нами з: 03.09.11
Востаннє: 04.12.16
Повідомлень: 1880

2013-09-23 20:27  
ivan vyrvyvuho написано:
А звичайне АВІ на 1.45 буде?

http://toloka.to/t50117

Pokemonator 
Поважний учасник


З нами з: 18.06.08
Востаннє: 30.11.16
Повідомлень: 167

2013-09-24 18:18  
прекрасний мульт! дивився у кінотеатрі і насміявся від пуза! однозначно раджу для сімейного перегляду і в домашню колекцію! Wink (1)
10/10

eXteSy- 
VIP


З нами з: 06.04.09
Востаннє: 04.12.16
Повідомлень: 1453

2013-10-13 14:56  
Просто чудово! Дуже тішить той факт, що не перестають створювати настільки якісні, цікаві, веселі і просто хороші мультфільми.
10/10

Ваш часовий пояс: GMT + 2 Години

Нова тема   Відповісти