Завантажити та скачати торренти українською


Стрілець / Shooter (2007) 720p Ukr/Eng | Sub Ukr/Eng

Нові коментарі

Нова тема   Відповісти
Автор Повідомлення
braveboy 
Відео Гуртом - команда HD
Відео Гуртом - команда HD


З нами з: 15.06.10
Востаннє: 29.10.16
Повідомлень: 958

2013-09-23 17:56  

Стрілець / Shooter (2007) 720p Ukr/Eng | Sub Ukr/Eng




«Раніше він вірив у справедливість. Тепер - у відплату. »


Жанр: бойовик, трилер, кримінальний, детектив
Країна: США


Кінокомпанія: Paramount Pictures
Режисер: Антуан Фукуа
Актори: Марк Уолберг, Майкл Пенья, Деннi Гловер, Кейт Мара

Сюжет:
Сюжет фільму частково базований на романі американського письменника Стівена Гантера — «Місце удару» (Point of Impact). На відміну від ветерана в’єтнамської війни у романі, головний герой фільму сучасний снайпер екстра-класу — Боб Лі Свеґґер. В результаті змови Боба підставляють злочинці, які вчинили вбивство африканського архієпископа. Щоб виправдатися, Боб мусить знайти справжніх вбивць і тих, хто стоїть за ними.



Тривалість: 02:05:41
Якість: 720p
Відео:
кодек:
розмір кадру: 1280 х 534
бітрейт: 6465 кб/с

Аудіо # 1:
мова: українська
переклад: професійний дубльований
кодек: 5.1
бітрейт: 640 кб/с

Аудіо # 2:
мова: англійська
переклад: оригінал
кодек: 5.1
бітрейт: 640 кб/с

Джерело озвучення:


Субтитри:
мова: українська
тип: програмні (м'які)
формат: *.srt

Субтитри:
мова: англійська
тип: програмні (м'які)
формат: *.srt

720p by braveboy
log

[info]: frame I:2163 Avg QP:14.98 size:123982
[info]: frame P:38516 Avg QP:16.80 size: 60829
[info]: frame B:140137 Avg QP:18.51 size: 24833
[info]: consecutive B-frames: 2.2% 3.3% 8.0% 16.4% 13.4% 47.4% 9.3%
[info]: mb I I16..4: 9.3% 68.8% 22.0%
[info]: mb P I16..4: 2.4% 20.7% 3.9% P16..4: 26.5% 20.7% 17.7% 1.8% 0.5% skip: 5.8%
[info]: mb B I16..4: 0.3% 3.3% 0.6% B16..8: 35.3% 18.2% 6.6% direct: 9.2% skip:26.5% L0:41.0% L1:37.7% BI:21.3%
[info]: 8x8 transform intra:76.6% inter:46.9%
[info]: coded y,uvDC,uvAC intra: 94.8% 88.1% 70.6% inter: 44.3% 34.7% 12.4%
[info]: i16 v,h,dc,p: 23% 6% 16% 55%
[info]: i8 v,h,dc,ddl,ddr,vr,hd,vl,hu: 12% 9% 8% 9% 13% 12% 13% 11% 13%
[info]: i4 v,h,dc,ddl,ddr,vr,hd,vl,hu: 14% 9% 4% 9% 14% 12% 14% 11% 14%
[info]: i8c dc,h,v,p: 44% 24% 17% 15%
[info]: Weighted P-Frames: Y:8.2% UV:4.7%
[info]: ref P L0: 45.5% 12.1% 19.1% 7.2% 6.0% 3.8% 3.7% 2.2% 0.3% 0.0%
[info]: ref B L0: 73.1% 13.5% 6.2% 3.4% 2.3% 1.2% 0.4%
[info]: ref B L1: 92.3% 7.7%
[info]: kb/s:6461.35
MediaInfo
Video
ID : 1
Format : AVC
Format/Info : Advanced Video Codec
Format profile : [email protected]
Format settings, CABAC : Yes
Format settings, ReFrames : 8 frames
Codec ID : V_MPEG4/ISO/AVC
Duration : 2h 5mn
Bit rate : 6 465 Kbps
Width : 1 280 pixels
Height : 534 pixels
Display aspect ratio : 2.40:1
Frame rate mode : Constant
Frame rate : 23.976 fps
Color space : YUV
Chroma subsampling : 4:2:0
Bit depth : 8 bits
Scan type : Progressive
Bits/(Pixel*Frame) : 0.394
Stream size : 5.54 GiB (81%)
Title : Shooter (2007) 720p by braveboy
Writing library : core 129 r2245 bc13772
Encoding settings : cabac=1 / ref=8 / deblock=1:-3:-3 / analyse=0x3:0x133 / me=umh / subme=9 / psy=1 / psy_rd=0.80:0.00 / mixed_ref=1 / me_range=24 / chroma_me=1 / trellis=1 / 8x8dct=1 / cqm=0 / deadzone=21,11 / fast_pskip=0 / chroma_qp_offset=-2 / threads=6 / lookahead_threads=1 / sliced_threads=0 / nr=0 / decimate=0 / interlaced=0 / bluray_compat=0 / constrained_intra=0 / bframes=6 / b_pyramid=2 / b_adapt=2 / b_bias=0 / direct=1 / weightb=1 / open_gop=0 / weightp=2 / keyint=240 / keyint_min=23 / scenecut=40 / intra_refresh=0 / rc=2pass / mbtree=0 / bitrate=6465 / ratetol=1.0 / qcomp=0.60 / qpmin=10 / qpmax=51 / qpstep=4 / cplxblur=20.0 / qblur=0.5 / ip_ratio=1.40 / pb_ratio=1.30 / aq=1:1.00
Default : Yes
Forced : No

Audio #1
ID : 2
Format : AC-3
Format/Info : Audio Coding 3
Mode extension : CM (complete main)
Format settings, Endianness : Big
Codec ID : A_AC3
Duration : 2h 5mn
Bit rate mode : Constant
Bit rate : 640 Kbps
Channel(s) : 6 channels
Channel positions : Front: L C R, Side: L R, LFE
Sampling rate : 48.0 KHz
Bit depth : 16 bits
Compression mode : Lossy
Stream size : 575 MiB (8%)
Title : 5.1 @ 640 kbps [Blu-ray CEE]
Language : Ukrainian
Default : Yes
Forced : No

Audio #2
ID : 3
Format : AC-3
Format/Info : Audio Coding 3
Mode extension : CM (complete main)
Format settings, Endianness : Big
Codec ID : A_AC3
Duration : 2h 5mn
Bit rate mode : Constant
Bit rate : 640 Kbps
Channel(s) : 6 channels
Channel positions : Front: L C R, Side: L R, LFE
Sampling rate : 48.0 KHz
Bit depth : 16 bits
Compression mode : Lossy
Stream size : 575 MiB (8%)
Title : 5.1 @ 640 kbps
Language : English
Default : No
Forced : No

Text #1
ID : 4
Format : UTF-8
Codec ID : S_TEXT/UTF8
Codec ID/Info : UTF-8 Plain Text
Title : Full
Language : Ukrainian
Default : No
Forced : No

Text #2
ID : 5
Format : UTF-8
Codec ID : S_TEXT/UTF8
Codec ID/Info : UTF-8 Plain Text
Title : Full
Language : English
Default : No
Forced : No

Menu
00:00:00.000 : en:00:00:00.000
00:08:13.118 : en:00:08:13.118
00:16:22.690 : en:00:16:22.690
00:23:13.309 : en:00:23:13.309
00:31:37.145 : en:00:31:37.145
00:39:02.632 : en:00:39:02.632
00:44:25.246 : en:00:44:25.246
00:51:27.293 : en:00:51:27.293
00:57:52.427 : en:00:57:52.427
01:05:09.739 : en:01:05:09.739
01:11:44.592 : en:01:11:44.592
01:18:00.801 : en:01:18:00.801
01:23:32.299 : en:01:23:32.299
01:29:56.891 : en:01:29:56.891
01:36:00.588 : en:01:36:00.588
01:39:56.657 : en:01:39:56.657
01:50:08.644 : en:01:50:08.644
01:55:31.341 : en:01:55:31.341
02:00:28.930 : en:02:00:28.930
Скріншоти
Джерело: Інше
Особиста оцінка: 10 - без зайвих вагань рекомендую всім!


 Трекер:    Зареєстрований   

Завантажити / скачати фільм українською



відео для новачків



 Зареєстрований:   2013-09-23 18:01
 Розмір:   6.8 GB 
 Оцінка фільму:   9.7/10 (Голосів: 31)
   
Інші релізи
   Стрілок / Стрілець / Shooter (2007) 2xUkr taraskill1  7 / 0   2.35 GB   2014-06-27 10:46 
   Стрілець / Shooter (2007) 720p-mini Ukr/Eng | Sub Ukr/Eng Drool  2 / 0   2.72 GB   2013-12-07 01:08 
   Стрілець / Shooter (2007) Remux 1080p Arsenfpu  0 / 0   18.07 GB   2011-07-11 18:47 
   Стрілець / Shooter (2007) 1080p Ukr/Eng | Sub Ukr/Eng Kuzmenko  2 / 0   9.91 GB   2010-12-15 18:23 
nissal 
Свій


З нами з: 14.04.11
Востаннє: 21.12.14
Повідомлень: 78

2013-09-24 19:23  
Дійсно круте кіно. Давно вже нічого не тримало так довго. 10.
Я є тут 
Свій


З нами з: 30.08.12
Востаннє: 19.11.16
Повідомлень: 101

2013-12-01 22:39  
Повністю згоден - дуже сподобалось!
Ваш часовий пояс: GMT + 2 Години

Нова тема   Відповісти