Завантажити та скачати торренти українською


Stoned Jesus - Stormy Monday (EP) (2011) [WV] | Stoner Metal

Нові коментарі

Нова тема   Відповісти
Останній раз роздавалося ssTAss (2016-12-09)
Автор Повідомлення
ssTAss 
Модератор музики


З нами з: 05.07.08
Востаннє: 09.12.16
Повідомлень: 10948

2013-09-21 20:48  
Stoned Jesus - Stormy Monday (EP) (2011) [WV] | Stoner Metal

Stoned Jesus - Stormy Monday (EP) (2011) [WV] | Stoner Metal


Стиль: Stoner Metal
Країна, місто: Україна, Київ
Сайти:
Виконавці:
Igor - гітара, вокал, семпли
Sid - бас
Vadim - ударні

+
Sergey (ANNA) - клавішні, мікшування
Пісні:
    1. Stormy Monday (extended) - 10:01
    2. Drunk and Horny - 5:05
    3. Bear Cave - 11:46
    4. Stormy Monday (edit) - 13:26
log
Exact Audio Copy V1.0 beta 3 from 29. August 2011

EAC extraction logfile from 31. March 2012, 22:34

Stoned Jesus / Stormy Monday (EP)

Used drive : ASUS DRW-1814BLT Adapter: 4 ID: 0

Read mode : Secure
Utilize accurate stream : Yes
Defeat audio cache : Yes
Make use of C2 pointers : No

Read offset correction : 6
Overread into Lead-In and Lead-Out : No
Fill up missing offset samples with silence : Yes
Delete leading and trailing silent blocks : No
Null samples used in CRC calculations : Yes
Used interface : Native Win32 interface for Win NT & 2000

Used output format : User Defined Encoder
Selected bitrate : 896 kBit/s
Quality : High
Add ID3 tag : No
Command line compressor : F:\Dropbox\Programs\Sound\Wavpack\wavpack.exe
Additional command line options : -hlmx2 %source% %dest%

TOC of the extracted CD

Track | Start | Length | Start sector | End sector
---------------------------------------------------------
1 | 0:00.00 | 10:31.08 | 0 | 47332
2 | 10:31.08 | 2:16.41 | 47333 | 57573
3 | 12:47.49 | 8:16.06 | 57574 | 94779
4 | 21:03.55 | 20:12.00 | 94780 | 185679

Range status and errors

Selected range

Filename C:\Stoned Jesus - 2011 - Stormy Monday (EP)\Stoned Jesus - Stormy Monday (EP).wav

Peak level 100.0 %
Extraction speed 5.8 X
Range quality 99.9 %
Test CRC 398474AC
Copy CRC 398474AC
Copy OK

No errors occurred

AccurateRip summary

Track 1 not present in database
Track 2 not present in database
Track 3 not present in database
Track 4 not present in database

None of the tracks are present in the AccurateRip database

End of status report

---- CUETools DB Plugin V2.1.3

[CTDB TOCID: DHU9zxEv3wrDRYEPi58caONiZk4-] disk not present in database, Submit result: DHU9zxEv3wrDRYEPi58caONiZk4- has been uploaded

==== Log checksum 4E5401FF4FBEC00DCE99ACAEDC7971EF5E30537071211738611C4D6C8EAAF874 ====
auCDtect
-----------------------

DON'T MODIFY THIS FILE

-----------------------

PERFORMER: auCDtect Task Manager, ver. 1.0.1 RC1 build 1.0.1.1
Copyright (c) 2008, 2009 y-soft. All rights reserved
http://y-soft.110mb.com

ANALYZER: auCDtect: CD records authenticity detector, version 0.8.2
Copyright (c) 2004 Oleg Berngardt. All rights reserved.
Copyright (c) 2004 Alexander Djourik. All rights reserved.

FILE: Stoned Jesus - Stormy Monday (EP).wav
Size: 436719404 Hash: 23E9E3B24EC045EE4C72561CB91C5408 Accuracy: -m0
Conclusion: CDDA 100%
Signature: 9DA735CDA81E0345EF78B428E393ED15FFF60FE5
Тривалість: 00:41:16
Мова: англійська
Аудіо-кодек: Wavpack
Бітрейт: 645 кб/с
Джерело: ріп deskoul

Якщо Ви справді бажаєте підтримати українське - після прослуховування, якщо музика вам сподобалась,
придбайте ліцензійний диск.
Підтримаймо вітчизняних виконавців!


Срібний реліз (на рейтинг впливає 50% завантаженого)
 Трекер:    Зареєстрований   

Завантажити / скачати українську музику



відео для новачків



 Зареєстрований:   2013-09-21 20:48
 Розмір:   267 MB 
 Оцінка музики:   6.3/10 (Голосів: 12)
   
panama58 
Частий відвідувач


З нами з: 05.12.08
Востаннє: 07.12.16
Повідомлень: 49

2015-07-15 21:18  
будьте ласкаві, станьте на роздачу
Ваш часовий пояс: GMT + 2 Години

Нова тема   Відповісти