Завантажити та скачати торренти українською


Останній самурай / The Last Samurai (2003) 1080р Ukr/Eng | Sub Ukr/Eng

Нові коментарі

Нова тема   Відповісти
Автор Повідомлення
Anonymous 







2013-09-21 13:23  
Останній самурай / The Last Samurai (2003) 1080р Ukr/Eng | Sub Ukr/Eng



Альтернативні постери





Жанр: бойовик, драма, історичний, військовий
Країна: США



Кінокомпанія: Warner Bros., Bedford Falls Company, The, Cruise/Wagner Productions
Режисер: Едвард Цвік / Edward Zwick
Актори: Том Круз / Tom Cruise, Кен Ватанабе / Ken Watanabe, Коюкі / Koyuki, Хіроюкі Санада / Hiroyuki Sanada, Шічіносуке Накамура / Shichinosuke Nakamura, Масато Харада / Masato Harada, Сюн Сугата / Shun Sugata, Сейдзо Фукумото / Сэйдзо Фукумото, Тімоті Сполл / Timothy Spall, Біллі Конноллі / Billy Connolly та інші.

Сюжет:
Дія фільму розгортається в Японії 70-их років дев'ятнадцятого століття. Капітан Нейтон Олгрен, шановний американський військовий офіцер, найнятий Імператором Японії для навчання першої армії Країни Вранішнього Сонця сучасному мистецтву ведення бойових дій.
Імператор намагається викорінити стародавніх воїнів-самураїв, готуючись до більш прозахідної політики уряду ...
Цікаві факти про фільм

• Для Тома Круза робота над цим фільмом стала однією з найтриваліших у його кар'єрі. У загальній складності на те, що б навчитися володіти самурайським мечем, розмовляти японською та пізнати звичаї і традиції японської культури, Тому довелося витратити близько двох років.
• Том Круз ледь не позбувся голови під час зйомок одного з епізодів картини. Його напарник по сцені Хіроюкі Санада повинен був зупинити меч у сантиметрі від голови актора. За словами японського актора, він здійснював помах мечем у напрямку Тома, коли той перебував на механічній підставці. Однак, відбувся якийсь збій, внаслідок чого механіка відмовила і не дозволила Тому ухилитися від удару. На щастя, встигнувши за частку секунди оцінити ситуацію, Хіроюкі зумів відвести свій смертоносний удар в сторону.
• Близько 500 японських статистів погодилися провести десять днів на Кліфтонскіх регбійних полях, де проходили зйомки фінальної батальної сцени.
• У фільмі згадується Фермопільська битва, більш відома як оборона 300 спартанцями Спарти від наступу персів. Кацумото і Олгрен вживають схожу військову хитрість.
• Кен Ватанабе - аж ніяк не новачок у Голлівуді, він вже з'являвся у малобюджетних фільмах. Проте він вперше заговорив з екрану англійською.
• Для композитора Ганса Зіммер саундтрек до фільму став сотим у його кар'єрі.
• Показана у фінальному бою "нова зброя" - кулемет Гатлінга.
• Під ім'ям Кацумото у фільмі був показаний легендарний Сайго Такаморі. Легендарний він не тільки тим, що користувався фантастичною популярністю і після смерті, але також тим, що багато хто не вірив у його смерть. Це призвело до такого казусу: поліцейський Сандзо Цуда, колишній учасник придушення повстання, що стояв у поліцейському оточенні, напав на великого князя Миколу, вважаючи, що він привіз з Росії Сайго Такаморі, який позбавив би його всіх нагород і піддав би безчестю.
• Том Круз відмовився від звичайного гонорару, погодившись на відсоток від прибутку в прокаті.
Рейтинг MPAA: R - особам до 17 років обов'язкова присутність батьків або дорослого опікуна
Вікова категорія: 16+

Тривалість: 02:34:11
Якість: 1080p
Відео:
кодек:
розмір кадру: 1920x792
бітрейт: 9440 кб/с

Аудіо # 1:
мова: українська - імовірно Студія "ТВ+"
переклад: багатоголосий закадровий
кодек: 5.1
бітрейт: 448 кб/с

Аудіо # 2:
мова: англійська
переклад: оригінал
кодек: 5.1
бітрейт: 640 кб/с

Субтитри:
мова: українська (форсовані)
тип: програмні (м'які)
формат: *.srt

Субтитри:
мова: українська (повні)
тип: програмні (м'які)
формат: *.srt

Субтитри:
мова: англійська (повні)
тип: програмні (м'які)
формат: *.srt

Збережено оригінальні розділи, як на Blu-ray.
MediaInfo та
[info]: frame I:2173 Avg QP:15.44 size:166503
[info]: frame P:55366 Avg QP:17.48 size: 76149
[info]: frame B:164266 Avg QP:19.46 size: 38508
[info]: consecutive B-frames: 4.5% 6.2% 11.5% 15.5% 15.8% 33.9% 12.6%
=================================================================================
General
Unique ID : 227855096368025658130431112952193216145 (0xAB6B4B9948189D82BB11B8F39693EE91)
Complete name : The Last Samurai (2003) [Ukr,Eng;sub.Ukr,Eng] 1080p [Hurtom].mkv
Format : Matroska
Format version : Version 4 / Version 2
File size : 11.3 GiB
Duration : 2h 34mn
Overall bit rate : 10.5 Mbps
Movie name : Останній самурай / The Last Samurai / Последний самурай (2003) 1080p [Hurtom]
Encoded date : UTC 2013-09-20 19:43:43
Writing application : mkvmerge v6.4.1 ('Omega Point') built on Sep 16 2013 22:05:10
Writing library : libebml v1.3.0 + libmatroska v1.4.1

Video
ID : 1
Format : AVC
Format/Info : Advanced Video Codec
Format profile : [email protected]
Format settings, CABAC : Yes
Format settings, ReFrames : 5 frames
Codec ID : V_MPEG4/ISO/AVC
Duration : 2h 34mn
Bit rate : 9 440 Kbps
Width : 1 920 pixels
Height : 792 pixels
Display aspect ratio : 2.40:1
Frame rate mode : Constant
Frame rate : 23.976 fps
Color space : YUV
Chroma subsampling : 4:2:0
Bit depth : 8 bits
Scan type : Progressive
Bits/(Pixel*Frame) : 0.259
Stream size : 9.93 GiB (88%)
Title : Останній самурай / The Last Samurai / Последний самурай (2003) 1080p [NoLimits-Team-envy]
Writing library : core 138 r2358 9e941d1
Encoding settings : cabac=1 / ref=5 / deblock=1:-3:-3 / analyse=0x3:0x133 / me=umh / subme=11 / psy=1 / psy_rd=1.00:0.00 / mixed_ref=1 / me_range=32 / chroma_me=1 / trellis=2 / 8x8dct=1 / cqm=0 / deadzone=21,11 / fast_pskip=0 / chroma_qp_offset=-2 / threads=12 / lookahead_threads=1 / sliced_threads=0 / nr=0 / decimate=1 / interlaced=0 / bluray_compat=0 / constrained_intra=0 / bframes=6 / b_pyramid=2 / b_adapt=2 / b_bias=0 / direct=3 / weightb=1 / open_gop=0 / weightp=2 / keyint=240 / keyint_min=23 / scenecut=40 / intra_refresh=0 / rc=2pass / mbtree=0 / bitrate=9440 / ratetol=2.0 / qcomp=0.60 / qpmin=0 / qpmax=69 / qpstep=4 / cplxblur=20.0 / qblur=0.5 / ip_ratio=1.40 / pb_ratio=1.30 / aq=1:0.90
Language : English
Default : Yes
Forced : No

Audio #1
ID : 2
Format : AC-3
Format/Info : Audio Coding 3
Mode extension : CM (complete main)
Format settings, Endianness : Big
Codec ID : A_AC3
Duration : 2h 34mn
Bit rate mode : Constant
Bit rate : 448 Kbps
Channel(s) : 6 channels
Channel positions : Front: L C R, Side: L R, LFE
Sampling rate : 48.0 KHz
Bit depth : 16 bits
Compression mode : Lossy
Delay relative to video : 1s 200ms
Stream size : 494 MiB (4%)
Title : MVO [TV+, ICTV] 5.1 448 kbps [Hurtom-Romario_O]
Language : Ukrainian
Default : Yes
Forced : No

Audio #2
ID : 3
Format : AC-3
Format/Info : Audio Coding 3
Mode extension : CM (complete main)
Format settings, Endianness : Big
Codec ID : A_AC3
Duration : 2h 34mn
Bit rate mode : Constant
Bit rate : 640 Kbps
Channel(s) : 6 channels
Channel positions : Front: L C R, Side: L R, LFE
Sampling rate : 48.0 KHz
Bit depth : 16 bits
Compression mode : Lossy
Stream size : 706 MiB (6%)
Title : Original
Language : English
Default : No
Forced : No

Text #1
ID : 4
Format : UTF-8
Codec ID : S_TEXT/UTF8
Codec ID/Info : UTF-8 Plain Text
Title : Ukr forced
Language : Ukrainian
Default : Yes
Forced : Yes

Text #2
ID : 5
Format : UTF-8
Codec ID : S_TEXT/UTF8
Codec ID/Info : UTF-8 Plain Text
Title : Ukr full
Language : Ukrainian
Default : No
Forced : No

Text #3
ID : 6
Format : UTF-8
Codec ID : S_TEXT/UTF8
Codec ID/Info : UTF-8 Plain Text
Title : Eng full
Language : English
Default : No
Forced : No

Menu
00:00:00.000 : :Chapter 01
00:01:52.068 : :Chapter 02
00:05:38.629 : :Chapter 03
00:09:58.388 : :Chapter 04
00:13:13.583 : :Chapter 05
00:15:24.881 : :Chapter 06
00:20:06.496 : :Chapter 07
00:22:54.830 : :Chapter 08
00:25:39.496 : :Chapter 09
00:31:12.996 : :Chapter 10
00:37:00.675 : :Chapter 11
00:41:00.916 : :Chapter 12
00:44:11.440 : :Chapter 13
00:49:36.097 : :Chapter 14
00:52:41.114 : :Chapter 15
00:56:48.362 : :Chapter 16
01:00:04.559 : :Chapter 17
01:03:25.259 : :Chapter 18
01:06:58.972 : :Chapter 19
01:11:43.256 : :Chapter 20
01:14:40.600 : :Chapter 21
01:18:55.689 : :Chapter 22
01:21:22.002 : :Chapter 23
01:24:21.014 : :Chapter 24
01:26:39.819 : :Chapter 25
01:30:28.381 : :Chapter 26
01:34:01.761 : :Chapter 27
01:37:16.454 : :Chapter 28
01:41:46.390 : :Chapter 29
01:44:55.912 : :Chapter 30
01:48:06.604 : :Chapter 31
01:52:26.363 : :Chapter 32
01:55:24.375 : :Chapter 33
02:00:03.654 : :Chapter 34
02:06:24.534 : :Chapter 35
02:08:21.484 : :Chapter 36
02:10:46.796 : :Chapter 37
02:13:06.602 : :Chapter 38
02:16:37.314 : :Chapter 39
02:22:57.527 : :Chapter 40
02:24:31.287 : :Chapter 41



Джерела та подяки:
ріп відео, оригінальні звук та субтитри - envy (NoLimits-Team & FireBit-Films); українська доріжка - Romario_O - зведення, drakon87 - запис з ТБ; українські субтитри - antikillW (HQClub); український постер - d1mma (всі - Гуртом).

Особиста оцінка: 10 - без зайвих вагань рекомендую всім!

ЗАЛИШАЙТЕСЬ ЯКОМОГА ДОВШЕ НА РОЗДАЧІ!

СКАЧАВ САМ - ДАЙ СКАЧАТИ ІНШИМ


Срібний реліз (на рейтинг впливає 50% завантаженого)
 Трекер:    Зареєстрований   

Завантажити / скачати фільм українською



відео для новачків



 Зареєстрований:   2013-09-21 13:23
 Розмір:   11.33 GB 
 Оцінка фільму:   7.1/10 (Голосів: 35)
   
Інші релізи
praysu 
Забанено
Забанено


З нами з: 22.05.08
Востаннє: 13.11.13
Повідомлень: 119

2013-09-21 18:39  
Чудовий фільм рекомендую подивитись!
efunky 
Новенький


З нами з: 01.07.14
Востаннє: 05.11.16
Повідомлень: 12

2014-10-31 23:02  
Погоджуюсь! Фільм вартий уваги. Якщо набридло дивитись комедії та усілякий треш, дивіться Самурая! Happy
winter79 
Новенький


З нами з: 04.01.15
Востаннє: 03.12.16
Повідомлень: 7

2015-01-04 20:18  
Боже, сподіваюсь моя країна стане більш заможною і я зможу купувати фільми а не піратити, бо соромно

Додано через 24 хвилини 15 секунд:

Хлопці станьте на роздачу нема швидкості

don pedro 
Попереджень: 1
Попереджень: 1 


З нами з: 29.06.11
Востаннє: 07.12.16
Повідомлень: 8761

2015-01-04 21:34  
Гарне, красиво зроблене фентезі.
Ваш часовий пояс: GMT + 2 Години

Нова тема   Відповісти