Завантажити та скачати торренти українською


24 години / Trapped (2002) 2xUkr/Eng | Sub Eng

Нові коментарі

Нова тема   Відповісти
Автор Повідомлення
Anonymous 







2013-09-19 23:12  
24 години / Trapped (2002) 2xUkr/Eng | Sub Eng



Жанр: трилер, драма, кримінал
Країна: США, Німеччина



Кінокомпанія: Columbia Pictures, Senator Film Produktion, Canton Company, Mandolin Entertainment, Propaganda Films, 24 Hours Productions
Режисер: Луїс Мандокі / Luis Mandoki
Актори: Шарліз Терон / Charlize Theron, Кевін Бейкон / Kevin Bacon, Кортні Лав / Courtney Love, Стюарт Таунсенд / Stuart Townsend, Прюітт Тейлор Вінс / Pruitt Taylor Vince, Дакота Фаннінг / Dakota Fanning та інші

Сюжет:
Вілл (Таунсенд) і Карен (Терон) Дженнінгс загнані до пастки: їхня донька викрадена, 24-годинний злочинний план задіяний. Усе це перевертає з ніг на голову те, що вони вважали саме собою зрозумілим. Джо (Бекон) і Шеріл (Лав) Гікі разом з їхнім кузеном Марвіном Пулом (Вінс) розробили безпомилковий план по здирству грошей з багатих сімей. Оскільки час спливає, Вілл і Карен, які перебувають у різних містах, вдаються до будь-яких дій, щоб у встановлений термін виконати вимоги злочинців. Нехай навіть у їхньому розпачливому становищі вони самі повинні порушити закон...


Тривалість: 01:45:46
Якість:
Відео:
кодек:
розмір кадру: 704x400
бітрейт: 2042 кб/с

Аудіо # 1:
мова: українська - Так Треба Продакшн на замовлення
переклад: багатоголосий закадровий
кодек: 5.1
бітрейт: 448 кб/с

Аудіо # 2:
мова: українська - Так Треба Продакшн
переклад: багатоголосий закадровий
кодек: 5.1
бітрейт: 448 кб/с
imonko написано:
Переклад практично ідентичний до першої доріжки


Аудіо # 3: (окремо)
мова: англійська
переклад: оригінал
кодек: 5.1
бітрейт: 448 кб/с

Субтитри:
мова: англійська
тип: програмні (м'які)
формат: *.srt
MediaInfo
General
Complete name : Trapped (2002) [2xUkr,Eng] [Hurtom, HQCLUB].avi
Format : AVI
Format/Info : Audio Video Interleave
Format profile : OpenDML
File size : 2.18 GiB
Duration : 1h 45mn
Overall bit rate : 2 956 Kbps
Movie name : 24 години / Trapped / 24 часа (2002)
Director : kingsize87, igor911
Writing application : VirtualDubModRus 1.5.10.2 (build 2540/release)
Writing library : VirtualDubMod build 2540/release
Copyright : Hurtom & HQCLUB
Comment : 19.09.2013

Video
ID : 0
Format : MPEG-4 Visual
Format profile : Advanced [email protected]
Format settings, BVOP : 1
Format settings, QPel : No
Format settings, GMC : No warppoints
Format settings, Matrix : Custom
Codec ID :
Codec ID/Hint :
Duration : 1h 45mn
Bit rate : 2 042 Kbps
Width : 704 pixels
Height : 400 pixels
Display aspect ratio : 16:9
Frame rate : 23.976 fps
Color space : YUV
Chroma subsampling : 4:2:0
Bit depth : 8 bits
Scan type : Progressive
Compression mode : Lossy
Bits/(Pixel*Frame) : 0.302
Stream size : 1.51 GiB (69%)
Writing library : 65

Audio #1
ID : 1
Format : AC-3
Format/Info : Audio Coding 3
Mode extension : CM (complete main)
Format settings, Endianness : Big
Codec ID : 2000
Duration : 1h 45mn
Bit rate mode : Constant
Bit rate : 448 Kbps
Channel(s) : 6 channels
Channel positions : Front: L C R, Side: L R, LFE
Sampling rate : 48.0 KHz
Bit depth : 16 bits
Compression mode : Lossy
Stream size : 339 MiB (15%)
Alignment : Split accross interleaves
Interleave, duration : 42 ms (1.00 video frame)
Interleave, preload duration : 500 ms

Audio #2
ID : 2
Format : AC-3
Format/Info : Audio Coding 3
Mode extension : CM (complete main)
Format settings, Endianness : Big
Codec ID : 2000
Duration : 1h 45mn
Bit rate mode : Constant
Bit rate : 448 Kbps
Channel(s) : 6 channels
Channel positions : Front: L C R, Side: L R, LFE
Sampling rate : 48.0 KHz
Bit depth : 16 bits
Compression mode : Lossy
Stream size : 339 MiB (15%)
Alignment : Split accross interleaves
Interleave, duration : 42 ms (1.00 video frame)
Interleave, preload duration : 500 ms


Джерела та подяки: &
ріп відео, оригінальний звук та субтитри - kingsize87 (HQClub); українські доріжки - imonko - зведення, MAKAPOHHIK, Merdiff - запис з ТБ; український постер - somnambula (всі - Гуртом).

ЗАЛИШАЙТЕСЬ ЯКОМОГА ДОВШЕ НА РОЗДАЧІ!

СКАЧАВ САМ - ДАЙ СКАЧАТИ ІНШИМ


Срібний реліз (на рейтинг впливає 50% завантаженого)
 Трекер:    Зареєстрований   

Завантажити / скачати фільм українською



відео для новачків



 Зареєстрований:   2013-09-19 23:12
 Розмір:   2.52 GB 
 Оцінка фільму:   3.8/10 (Голосів: 16)
   
Інші релізи
   24 години / Trapped (2002) 720p 2xUkr/Eng | Sub Eng igor911  1 / 0   4.7 GB   2013-09-19 22:38 
   24 години / Trapped (2002) 1080p 2xUkr/Eng | Sub Eng igor911  0 / 0   8.28 GB   2013-09-19 22:09 
   24 години / Trapped (2002) AVC 2xUkr/Eng |Sub Eng imonko  0 / 0   2.5 GB   2012-01-17 13:51 
Ваш часовий пояс: GMT + 2 Години

Нова тема   Відповісти