Завантажити та скачати торренти українською


24 години / Trapped (2002) 1080p 2xUkr/Eng | Sub Eng

Нові коментарі

Нова тема   Відповісти
Останній раз роздавалося igor911 (2015-11-11)
Автор Повідомлення
Anonymous 







2013-09-19 22:09  
24 години / Trapped (2002) 1080p 2xUkr/Eng | Sub Eng



Жанр: трилер, драма, кримінал
Країна: США, Німеччина



Кінокомпанія: Columbia Pictures, Senator Film Produktion, Canton Company, Mandolin Entertainment, Propaganda Films, 24 Hours Productions
Режисер: Луїс Мандокі / Luis Mandoki
Актори: Шарліз Терон / Charlize Theron, Кевін Бейкон / Kevin Bacon, Кортні Лав / Courtney Love, Стюарт Таунсенд / Stuart Townsend, Прюітт Тейлор Вінс / Pruitt Taylor Vince, Дакота Фаннінг / Dakota Fanning та інші

Сюжет:
Вілл (Таунсенд) і Карен (Терон) Дженнінгс загнані до пастки: їхня донька викрадена, 24-годинний злочинний план задіяний. Усе це перевертає з ніг на голову те, що вони вважали саме собою зрозумілим. Джо (Бекон) і Шеріл (Лав) Гікі разом з їхнім кузеном Марвіном Пулом (Вінс) розробили безпомилковий план по здирству грошей з багатих сімей. Оскільки час спливає, Вілл і Карен, які перебувають у різних містах, вдаються до будь-яких дій, щоб у встановлений термін виконати вимоги злочинців. Нехай навіть у їхньому розпачливому становищі вони самі повинні порушити закон...


Тривалість: 01:45:46
Якість: 1080p
Відео:
кодек:
розмір кадру: 1920х1080
бітрейт: 9865 кб/с

Аудіо # 1:
мова: українська - Так Треба Продакшн на замовлення
переклад: багатоголосий закадровий
кодек: 5.1
бітрейт: 448 кб/с

Аудіо # 2:
мова: українська - Так Треба Продакшн
переклад: багатоголосий закадровий
кодек: 5.1
бітрейт: 448 кб/с
imonko написано:
Переклад практично ідентичний до першої доріжки


Аудіо # 3:
мова: англійська
переклад: оригінал
кодек: 5.1
бітрейт: 448 кб/с

Субтитри:
мова: англійська
тип: програмні (м'які)
формат: *.srt
MediaInfo та
[info]: frame I:809 Avg QP:19.14 size:124549
[info]: frame P:40050 Avg QP:20.90 size: 80113
[info]: frame B:111304 Avg QP:22.77 size: 40537
==================================================================================
General
Unique ID : 240843966791414308762256218676548004905 (0xB530DC5A8FBF24AAA79479AE2E9EEC29)
Complete name : Trapped (2002) [2xUkr,Eng;sub.Eng] 1080p [Hurtom].mkv
Format : Matroska
Format version : Version 4 / Version 2
File size : 8.28 GiB
Duration : 1h 45mn
Overall bit rate : 11.2 Mbps
Movie name : 24 години / Trapped / 24 часа (2002) 1080p [Hurtom]
Encoded date : UTC 2013-09-19 17:09:28
Writing application : mkvmerge v6.4.1 ('Omega Point') built on Sep 16 2013 22:05:10
Writing library : libebml v1.3.0 + libmatroska v1.4.1

Video
ID : 1
Format : AVC
Format/Info : Advanced Video Codec
Format profile : [email protected]
Format settings, CABAC : Yes
Format settings, ReFrames : 4 frames
Codec ID : V_MPEG4/ISO/AVC
Duration : 1h 45mn
Bit rate : 9 865 Kbps
Width : 1 920 pixels
Height : 1 080 pixels
Display aspect ratio : 16:9
Frame rate mode : Constant
Frame rate : 23.976 fps
Color space : YUV
Chroma subsampling : 4:2:0
Bit depth : 8 bits
Scan type : Progressive
Bits/(Pixel*Frame) : 0.198
Stream size : 7.12 GiB (86%)
Title : 24 години / Trapped / 24 часа (2002) 1080p [NoLimits-Team-_denis_100]
Writing library : core 138 r2358 9e941d1
Encoding settings : cabac=1 / ref=4 / deblock=1:-3:-3 / analyse=0x3:0x113 / me=umh / subme=11 / psy=1 / psy_rd=1.00:0.15 / mixed_ref=1 / me_range=32 / chroma_me=1 / trellis=2 / 8x8dct=1 / cqm=0 / deadzone=21,11 / fast_pskip=0 / chroma_qp_offset=-3 / threads=6 / lookahead_threads=1 / sliced_threads=0 / nr=0 / decimate=0 / interlaced=0 / bluray_compat=0 / constrained_intra=0 / bframes=6 / b_pyramid=2 / b_adapt=2 / b_bias=0 / direct=3 / weightb=1 / open_gop=0 / weightp=2 / keyint=240 / keyint_min=23 / scenecut=40 / intra_refresh=0 / rc=2pass / mbtree=0 / bitrate=9865 / ratetol=1.0 / qcomp=0.60 / qpmin=0 / qpmax=69 / qpstep=4 / cplxblur=20.0 / qblur=0.5 / ip_ratio=1.40 / pb_ratio=1.30 / aq=1:0.95
Language : English
Default : Yes
Forced : No

Audio #1
ID : 2
Format : AC-3
Format/Info : Audio Coding 3
Mode extension : CM (complete main)
Format settings, Endianness : Big
Codec ID : A_AC3
Duration : 1h 45mn
Bit rate mode : Constant
Bit rate : 448 Kbps
Channel(s) : 6 channels
Channel positions : Front: L C R, Side: L R, LFE
Sampling rate : 48.0 KHz
Bit depth : 16 bits
Compression mode : Lossy
Stream size : 339 MiB (4%)
Title : MVO [TakTrebaProduction-TRK Ukraina] 5.1 448 kbps [Hurtom-imonko, igor911]
Language : Ukrainian
Default : Yes
Forced : No

Audio #2
ID : 3
Format : AC-3
Format/Info : Audio Coding 3
Mode extension : CM (complete main)
Format settings, Endianness : Big
Codec ID : A_AC3
Duration : 1h 45mn
Bit rate mode : Constant
Bit rate : 448 Kbps
Channel(s) : 6 channels
Channel positions : Front: L C R, Side: L R, LFE
Sampling rate : 48.0 KHz
Bit depth : 16 bits
Compression mode : Lossy
Stream size : 339 MiB (4%)
Title : MVO [TakTrebaProduction-NTN] 5.1 448 kbps [Hurtom-imonko, igor911]
Language : Ukrainian
Default : No
Forced : No

Audio #3
ID : 4
Format : AC-3
Format/Info : Audio Coding 3
Mode extension : CM (complete main)
Format settings, Endianness : Big
Codec ID : A_AC3
Duration : 1h 45mn
Bit rate mode : Constant
Bit rate : 448 Kbps
Channel(s) : 6 channels
Channel positions : Front: L C R, Side: L R, LFE
Sampling rate : 48.0 KHz
Bit depth : 16 bits
Compression mode : Lossy
Stream size : 339 MiB (4%)
Title : Original
Language : English
Default : No
Forced : No

Text
ID : 5
Format : UTF-8
Codec ID : S_TEXT/UTF8
Codec ID/Info : UTF-8 Plain Text
Title : Eng full
Language : English
Default : No
Forced : No


Джерела та подяки:
ріп відео, оригінальний звук - _denis_100 (NoLimits-Team & FireBit-Films); українські доріжки - imonko - зведення, MAKAPOHHIK, Merdiff - запис з ТБ; український постер - somnambula (всі - Гуртом).

ЗАЛИШАЙТЕСЬ ЯКОМОГА ДОВШЕ НА РОЗДАЧІ!

СКАЧАВ САМ - ДАЙ СКАЧАТИ ІНШИМ


Срібний реліз (на рейтинг впливає 50% завантаженого)
 Трекер:    Зареєстрований   

Завантажити / скачати фільм українською



відео для новачків



 Зареєстрований:   2013-09-19 22:09
 Розмір:   8.28 GB 
 Оцінка фільму:   2.5/10 (Голосів: 12)
   
Інші релізи
   24 години / Trapped (2002) 2xUkr/Eng | Sub Eng igor911  1 / 1   2.52 GB   2013-09-19 23:12 
   24 години / Trapped (2002) 720p 2xUkr/Eng | Sub Eng igor911  1 / 0   4.7 GB   2013-09-19 22:38 
   24 години / Trapped (2002) AVC 2xUkr/Eng |Sub Eng imonko  0 / 0   2.5 GB   2012-01-17 13:51 
oldfart1 
Новенький


З нами з: 04.01.14
Востаннє: 20.11.16
Повідомлень: 5

2016-07-01 19:18  
роздача буде ?
Anonymous 







2016-07-01 19:21  
oldfart1, від мене - ні, вийшов з ладу HDD, в т.ч. і з цим релізом. Пиши в приват іншим, хто завантажив.
Ваш часовий пояс: GMT + 2 Години

Нова тема   Відповісти