Завантажити та скачати торренти українською


Нальотчики / Takers (2010) 720p Ukr/Eng | Sub Multi

Нові коментарі

Нова тема   Відповісти
Автор Повідомлення
NeetScrool 
Відео Гуртом - фільмокрай
Відео Гуртом - фільмокрай


З нами з: 10.01.13
Востаннє: 09.12.16
Повідомлень: 2222

2013-09-18 22:25  
Нальотчики / Takers (2010) 720p Ukr/Eng | Sub Multi


Жанр: екшн, кримінальний, трилер
Країна: США



Кінокомпанія: Screen Gems, Rainforest Films, Grand Hustle Entertainment
Режисер: Джон Люссенгоп
Актори: Метт Діллон, Пол Вокер, Ідріс Ельба, Джей Ернандез, Майкл Ілі, Тіп "Ті. Ай" Гарріс, Кріс Браун, Гейден Крістенсен

Сюжет:
Група молодих винахідливих грабіжників здійснює зухвалу аферу, в результаті якої ховається з 20 мільйонами доларів. Справа ускладнюється тим, що по сліду банди йде не менш сильний суперник - поліцейський детектив Джек Веллс, а давній друг пропонує "хапалам" провернути ще одну справу, на підготовку якої у хлопців є декілька днів...


Тривалість: 01:42:05
Якість:
Відео:
кодек:
розмір кадру: 1280 х 534
бітрейт: 6500 кб/с

Аудіо:
мова: українська
переклад: двоголосий закадровий
кодек: 2.0
бітрейт: 192 кб/с

Аудіо #2:
мова: англійська
переклад: оригінал
кодек: 5.1
бітрейт: 448 кб/с

Аудіо #3:
мова: англійська (коментарі)
переклад: оригінал
кодек: 2.0
бітрейт: 192 кб/с

Джерело озвучення:


Субтитри:
мова: українська/російська/англійська/французька/португальська/іспанська
тип: програмні (м'які)
формат: *.srt
MediaInfo
General
Unique ID : 209511151393133446828775635475065063183 (0x9D9E6148AB8E3DF7A61E874CB5A1C70F)
Complete name : D:\Фільми\Takers (2010) 720p.mkv
Format : Matroska
Format version : Version 4 / Version 2
File size : 5.48 GiB
Duration : 1h 47mn
Overall bit rate : 7 332 Kbps
Movie name : Нальотчики / Takers (2010)
Encoded date : UTC 2013-09-18 18:39:01
Writing application : mkvmerge v6.4.1 ('Omega Point') built on Sep 16 2013 22:05:10
Writing library : libebml v1.3.0 + libmatroska v1.4.1

Video
ID : 1
Format : AVC
Format/Info : Advanced Video Codec
Format profile : [email protected]
Format settings, CABAC : Yes
Format settings, ReFrames : 9 frames
Codec ID : V_MPEG4/ISO/AVC
Duration : 1h 47mn
Bit rate : 6 500 Kbps
Width : 1 280 pixels
Height : 534 pixels
Display aspect ratio : 2.40:1
Frame rate mode : Constant
Frame rate : 23.976 fps
Color space : YUV
Chroma subsampling : 4:2:0
Bit depth : 8 bits
Scan type : Progressive
Bits/(Pixel*Frame) : 0.397
Stream size : 4.75 GiB (87%)
Title : by EbP
Writing library : core 112 r1834 a51816a
Encoding settings : cabac=1 / ref=9 / deblock=1:-3:-3 / analyse=0x3:0x113 / me=tesa / subme=10 / psy=1 / psy_rd=1.00:0.00 / mixed_ref=1 / me_range=16 / chroma_me=1 / trellis=2 / 8x8dct=1 / cqm=0 / deadzone=21,11 / fast_pskip=0 / chroma_qp_offset=-2 / threads=6 / sliced_threads=0 / nr=0 / decimate=0 / interlaced=0 / constrained_intra=0 / bframes=7 / b_pyramid=2 / b_adapt=2 / b_bias=0 / direct=3 / weightb=1 / open_gop=0 / weightp=2 / keyint=250 / keyint_min=23 / scenecut=40 / intra_refresh=0 / rc=2pass / mbtree=0 / bitrate=6500 / ratetol=1.0 / qcomp=0.60 / qpmin=0 / qpmax=51 / qpstep=4 / cplxblur=20.0 / qblur=0.5 / ip_ratio=1.40 / pb_ratio=1.30 / aq=1:0.90
Language : English
Default : Yes
Forced : No

Audio #1
ID : 2
Format : AC-3
Format/Info : Audio Coding 3
Mode extension : CM (complete main)
Format settings, Endianness : Big
Codec ID : A_AC3
Duration : 1h 47mn
Bit rate mode : Constant
Bit rate : 192 Kbps
Channel count : 2 channels
Channel positions : Front: L R
Sampling rate : 48.0 KHz
Bit depth : 16 bits
Compression mode : Lossy
Stream size : 147 MiB (3%)
Title : 1+1
Language : Ukrainian
Default : Yes
Forced : No

Audio #2
ID : 3
Format : AC-3
Format/Info : Audio Coding 3
Mode extension : CM (complete main)
Format settings, Endianness : Big
Codec ID : A_AC3
Duration : 1h 47mn
Bit rate mode : Constant
Bit rate : 448 Kbps
Channel count : 6 channels
Channel positions : Front: L C R, Side: L R, LFE
Sampling rate : 48.0 KHz
Bit depth : 16 bits
Compression mode : Lossy
Stream size : 343 MiB (6%)
Title : Оригінал
Language : English
Default : No
Forced : No

Audio #3
ID : 4
Format : AC-3
Format/Info : Audio Coding 3
Format profile : Dolby Digital
Mode extension : CM (complete main)
Format settings, Endianness : Big
Codec ID : A_AC3
Duration : 1h 47mn
Bit rate mode : Constant
Bit rate : 192 Kbps
Channel count : 2 channels
Channel positions : Front: L R
Sampling rate : 48.0 KHz
Bit depth : 16 bits
Compression mode : Lossy
Stream size : 147 MiB (3%)
Title : 2.0ch 192 kbps - Commentary
Language : English
Default : No
Forced : No

Text #1
ID : 5
Format : UTF-8
Codec ID : S_TEXT/UTF8
Codec ID/Info : UTF-8 Plain Text
Title : Українські
Language : Ukrainian
Default : No
Forced : No

Text #2
ID : 6
Format : UTF-8
Codec ID : S_TEXT/UTF8
Codec ID/Info : UTF-8 Plain Text
Language : Russian
Default : No
Forced : No

Text #3
ID : 7
Format : UTF-8
Codec ID : S_TEXT/UTF8
Codec ID/Info : UTF-8 Plain Text
Title : Англійські
Language : English
Default : No
Forced : No

Text #4
ID : 8
Format : UTF-8
Codec ID : S_TEXT/UTF8
Codec ID/Info : UTF-8 Plain Text
Title : Commentary
Language : English
Default : No
Forced : No

Text #5
ID : 9
Format : UTF-8
Codec ID : S_TEXT/UTF8
Codec ID/Info : UTF-8 Plain Text
Title : Французькі
Language : French
Default : No
Forced : No

Text #6
ID : 10
Format : UTF-8
Codec ID : S_TEXT/UTF8
Codec ID/Info : UTF-8 Plain Text
Title : Португальські
Language : Portuguese
Default : No
Forced : No

Text #7
ID : 11
Format : UTF-8
Codec ID : S_TEXT/UTF8
Codec ID/Info : UTF-8 Plain Text
Title : Іспанські
Language : Spanish
Default : No
Forced : No

Menu
00:00:00.000 : en:00:00:00.000
00:04:13.170 : en:00:04:13.170
00:14:54.560 : en:00:14:54.560
00:20:07.623 : en:00:20:07.623
00:24:03.484 : en:00:24:03.484
00:32:46.173 : en:00:32:46.173
00:35:20.076 : en:00:35:20.076
00:44:19.448 : en:00:44:19.448
00:52:50.250 : en:00:52:50.250
00:58:38.557 : en:00:58:38.557
01:02:27.702 : en:01:02:27.702
01:06:16.764 : en:01:06:16.764
01:13:14.682 : en:01:13:14.682
01:19:49.410 : en:01:19:49.410
01:23:39.389 : en:01:23:39.389
01:30:36.473 : en:01:30:36.473
Скріншоти












Запис - OlegCena та xslim
Синхронізація і постер - Gelios
Українські субтитри - The_Marlboro та rkononenko взяв з рутрекеру

Джерело: &
Особиста оцінка: 0 - не дивився


 Трекер:    Зареєстрований   

Завантажити / скачати фільм українською



відео для новачків



 Зареєстрований:   2013-09-18 22:25
 Розмір:   5.48 GB 
 Оцінка фільму:   8.2/10 (Голосів: 11)
   
Інші релізи
Ваш часовий пояс: GMT + 2 Години

Нова тема   Відповісти