Завантажити та скачати торренти українською


Тельма і Луіза / Thelma & Louise (1991) 1080p 2xUkr/Eng | Sub Eng

Нові коментарі

Нова тема   Відповісти
Автор Повідомлення
Anonymous 







2013-09-17 20:11  
Тельма і Луіза / Thelma & Louise (1991) 1080p 2xUkr/Eng | Sub Eng



Альтернативний український постер



Жанр: пригодницький, кримінальний, драма
Країна: США, Франція

Оскар (1992) за кращий сценарій

Кінокомпанія: Pathé Entertainment, Percy Main, Star Partners III Ltd.
Режисер: Рідлі Скотт / Ridley Scott
Актори: Сьюзен Сарандон / Susan Sarandon, Джина Девіс / Geena Davis, Гарві Кейтель / Harvey Keitel, Майкл Медсен / Michael Madsen, Крістофер МакДональд / Christopher McDonald, Стівен Тоболовські / Stephen Tobolowsky, Бред Пітт / Brad Pitt, Тімоті Каргарт / Timothy Carhart, Люсінда Дженні / Lucinda Jenney, Джейсон Бег / Jason Beghe, Марко Сент Джонс / Marco St. John та інші

Сюжет:
Щоранку Луїзі доводиться ходити в один і той самий ресторан швидкого харчування - вона працює там офіціанткою. У неї є бойфренд - музикант, який, гастролюючи по придорожніх генделиках, частенько забуває про свою кохану.
Енергійна і в минулому життєрадісна Тельма, вийшовши заміж за Дерріла, помітила, що місце жінки - на кухні з каструлями, а чоловіка - в кріслі перед телевізором. Таке життя не влаштовує обох жінок, і одного прекрасного дня, келих їхнього терпіння переповнюється. Вони вирішують залишити містечко, яке їм остогидло, подалі від своїх нестерпних чоловіків. На жаль, по дорозі їм доведеться зробити низку злочинів. У тому числі і вбивство. Їх оголошують у федеральний розшук, і подружкам залишається тільки одне - будь-що дістатися до Мексики.


Рейтинг MPAA: R - особам до 17 років обов'язкова присутність батьків або дорослого опікуна
Вікова категорія: 16+

Тривалість: 02:09:36
Якість: 1080p
Відео:
кодек:
розмір кадру: 1920х816
бітрейт: 7891 кб/с

Аудіо # 1:
мова: українська
переклад: багатоголосий закадровий
кодек: 2.0 (стерео)
бітрейт: 192 кбіт/с

Аудіо # 2:
мова: українська
переклад: двоголосий закадровий
ролі озвучили: Олег Лепенець, Тетяна Антонова або Ірина Стасів
кодек: 2.0
бітрейт: 192 кбіт/с

Аудіо # 3:
мова: англійська
переклад: оригінал
кодек: 5.1
бітрейт: 448 кбіт/с

Субтитри:
мова: англійська
тип: програмні (м'які)
формат: *.srt

Збережено оригінальні розділи, як на Blu-ray.
MediaInfo та
Код:
[info]: frame I:1073 Avg QP:17.78 size:156160
[info]: frame P:40428 Avg QP:20.14 size: 71419
[info]: frame B:144946 Avg QP:21.79 size: 31839

Код:
General
Unique ID                                : 224794132416088902249212083894484890628 (0xA91DC66C93FAD54B872E818F395E7404)
Complete name                            : Thelma & Louise (1991) [2xUkr,Eng sub.Eng] 1080p [Hurtom].mkv
Format                                   : Matroska
Format version                           : Version 4 / Version 2
File size                                : 7.90 GiB
Duration                                 : 2h 9mn
Overall bit rate                         : 8 725 Kbps
Movie name                               : Тельма і Луіза / Thelma & Louise (1991) 1080p [Hurtom]
Encoded date                             : UTC 2014-10-19 10:15:29
Writing application                      : mkvmerge v7.2.0 ('On Every Street') 64bit built on Sep 13 2014 15:52:10
Writing library                          : libebml v1.3.0 + libmatroska v1.4.1
DURATION                                 : 02:09:36.416000000
NUMBER_OF_FRAMES                         : 243013
NUMBER_OF_BYTES                          : 186633984
_STATISTICS_WRITING_APP                  : mkvmerge v7.2.0 ('On Every Street') 64bit built on Sep 13 2014 15:52:10
_STATISTICS_WRITING_DATE_UTC             : 2014-10-19 10:15:29
_STATISTICS_TAGS                         : BPS DURATION NUMBER_OF_FRAMES NUMBER_OF_BYTES

Video
ID                                       : 1
Format                                   : AVC
Format/Info                              : Advanced Video Codec
Format profile                           : [email protected]
Format settings, CABAC                   : Yes
Format settings, ReFrames                : 5 frames
Codec ID                                 : V_MPEG4/ISO/AVC
Duration                                 : 2h 9mn
Bit rate                                 : 7 891 Kbps
Width                                    : 1 920 pixels
Height                                   : 816 pixels
Display aspect ratio                     : 2.35:1
Frame rate mode                          : Constant
Frame rate                               : 23.976 fps
Color space                              : YUV
Chroma subsampling                       : 4:2:0
Bit depth                                : 8 bits
Scan type                                : Progressive
Bits/(Pixel*Frame)                       : 0.210
Stream size                              : 6.99 GiB (88%)
Title                                    : Тельма і Луіза / Thelma & Louise / Тельма и Луиза (1991) 1080p [K.A.F.]
Writing library                          : core 138 r2356 a1d3d17
Encoding settings                        : cabac=1 / ref=5 / deblock=1:-1:-1 / analyse=0x3:0x133 / me=tesa / subme=11 / psy=1 / psy_rd=1.00:0.07 / mixed_ref=1 / me_range=32 / chroma_me=1 / trellis=2 / 8x8dct=1 / cqm=0 / deadzone=21,11 / fast_pskip=0 / chroma_qp_offset=-3 / threads=12 / lookahead_threads=2 / sliced_threads=0 / nr=0 / decimate=0 / interlaced=0 / bluray_compat=0 / constrained_intra=0 / bframes=9 / b_pyramid=2 / b_adapt=2 / b_bias=0 / direct=3 / weightb=1 / open_gop=0 / weightp=2 / keyint=240 / keyint_min=23 / scenecut=40 / intra_refresh=0 / rc=2pass / mbtree=0 / bitrate=7891 / ratetol=1.0 / qcomp=0.60 / qpmin=0 / qpmax=69 / qpstep=4 / cplxblur=20.0 / qblur=0.5 / ip_ratio=1.40 / pb_ratio=1.30 / aq=1:1.00
Language                                 : English
Default                                  : Yes
Forced                                   : No

Audio #1
ID                                       : 2
Format                                   : AC-3
Format/Info                              : Audio Coding 3
Mode extension                           : CM (complete main)
Format settings, Endianness              : Big
Codec ID                                 : A_AC3
Duration                                 : 2h 9mn
Bit rate mode                            : Constant
Bit rate                                 : 192 Kbps
Channel(s)                               : 2 channels
Channel positions                        : Front: L R
Sampling rate                            : 48.0 KHz
Bit depth                                : 16 bits
Compression mode                         : Lossy
Stream size                              : 178 MiB (2%)
Title                                    : MVO [Enter] 2.0 192 kbps [Hurtom-taraskill1]
Language                                 : Ukrainian
Default                                  : Yes
Forced                                   : No

Audio #2
ID                                       : 3
Format                                   : AC-3
Format/Info                              : Audio Coding 3
Mode extension                           : CM (complete main)
Format settings, Endianness              : Big
Codec ID                                 : A_AC3
Duration                                 : 2h 9mn
Bit rate mode                            : Constant
Bit rate                                 : 192 Kbps
Channel(s)                               : 2 channels
Channel positions                        : Front: L R
Sampling rate                            : 48.0 KHz
Bit depth                                : 16 bits
Compression mode                         : Lossy
Stream size                              : 178 MiB (2%)
Title                                    : DVO [1+1] 2.0 192 kbps [Hurtom-rooster]
Language                                 : Ukrainian
Default                                  : No
Forced                                   : No

Audio #3
ID                                       : 4
Format                                   : AC-3
Format/Info                              : Audio Coding 3
Mode extension                           : CM (complete main)
Format settings, Endianness              : Big
Codec ID                                 : A_AC3
Duration                                 : 2h 9mn
Bit rate mode                            : Constant
Bit rate                                 : 448 Kbps
Channel(s)                               : 6 channels
Channel positions                        : Front: L C R, Side: L R, LFE
Sampling rate                            : 48.0 KHz
Bit depth                                : 16 bits
Compression mode                         : Lossy
Stream size                              : 415 MiB (5%)
Title                                    : Original 5.1 448 kbps
Language                                 : English
Default                                  : No
Forced                                   : No

Text
ID                                       : 5
Format                                   : UTF-8
Codec ID                                 : S_TEXT/UTF8
Codec ID/Info                            : UTF-8 Plain Text
Title                                    : Eng SDH
Language                                 : English
Default                                  : No
Forced                                   : No

Menu
00:00:00.000                             : en:
00:02:19.471                             : en:
00:06:19.379                             : en:
00:11:24.724                             : en:
00:14:20.109                             : en:
00:19:01.140                             : en:
00:22:30.140                             : en:
00:26:39.431                             : en:
00:30:50.348                             : en:
00:34:01.038                             : en:
00:37:46.931                             : en:
00:43:03.998                             : en:
00:46:11.643                             : en:
00:50:23.145                             : en:
00:53:31.123                             : en:
00:57:44.878                             : en:
01:02:05.638                             : en:
01:07:11.027                             : en:
01:10:35.773                             : en:
01:15:53.465                             : en:
01:21:24.921                             : en:
01:25:20.323                             : en:
01:30:19.330                             : en:
01:35:58.210                             : en:
01:41:32.127                             : en:
01:45:42.878                             : en:
01:48:37.969                             : en:
01:53:52.700                             : en:
01:55:59.035                             : en:
01:59:11.727                             : en:
02:02:06.777                             : en:
02:05:40.950                             : en:


Джерела та подяки:
ріп відео, оригінальні звук та субтитри - K.A.F. (рутор); українські доріжки - 1: taraskill1 - зведення, POMEO - запис з ТБ; 2: rooster - зведення, Merdiff - запис з ТБ; українські постери - rooster (всі - Гуртом).

Особиста оцінка: 8 - мені сподобалося

ЗАЛИШАЙТЕСЬ ЯКОМОГА ДОВШЕ НА РОЗДАЧІ!

СКАЧАВ САМ - ДАЙ СКАЧАТИ ІНШИМ


Срібний реліз (на рейтинг впливає 50% завантаженого)
 Трекер:    Зареєстрований   

Завантажити / скачати фільм українською



відео для новачків



 Зареєстрований:   2014-10-19 12:51
 Розмір:   7.9 GB 
 Оцінка фільму:   4.4/10 (Голосів: 16)
   
Інші релізи
   Тельма і Луіза / Thelma & Louise (1991) 2xUkr/Eng taraskill1  2 / 0   2.36 GB   2014-10-18 10:59 
   Тельма і Луіза / Thelma & Louise (1991) Ukr/Eng rooster  0 / 0   2.18 GB   2011-02-21 18:23 
   Тельма і Луіза / Thelma & Louise (1991) Ukr/Eng rooster  2 / 0   2.05 GB   2010-03-28 16:13 
zaika 
VIP


З нами з: 01.07.12
Востаннє: 11.12.16
Повідомлень: 954

2013-10-03 21:22  
Не люблю фільмів про невдах, про тих які невдахи від природи. Фільм залишає тяжкий осад на душі. Звернув увагу, що такі мотиви часті в творчості Рідлі Скотта. Можливо він саме так бачить світ.
Навіть не знаю як оцінити фільм.

waldi-hurtom 
VIP


З нами з: 07.10.12
Востаннє: 10.12.16
Повідомлень: 613

2013-10-03 23:15  
Класика жанру! 10 балів. Дякую за реліз, чудова якість. За фільм нічого й казати. Супер!
To: zaika: З таким ставленням до невдах пряма дорога до протестантів. Я побачив, наприклад, звільнившихся жінок, які випростались з повсякденного лайна та видимості життя. Якщо мета життя в зароблянні бабла, мені таких шкода.

zaika 
VIP


З нами з: 01.07.12
Востаннє: 11.12.16
Повідомлень: 954

2013-10-04 07:14  
waldi-hurtom
Це не перший фільм Рідлі Скотта де з самого початку панує відчуття приреченості. За кожним наступним кадром чекаєш якоїсь халепи. І ніякі звільнення ніякій жінці не світять, вона повинна зникнути. Цей фаталізм автора визиває розпач.
А те що Р. Скотт великий майстер - я не сумніваюсь. Можливо такі фільми якраз і є дуже корисні. Вони змушують отверезіти, зупинитись, задуматись.
А як оцінювати фільм який визиває негативні емоції?

fara1999 
VIP


З нами з: 01.11.09
Востаннє: 11.12.16
Повідомлень: 309

2013-10-04 09:04  
Фільм, насправді, дуже класний. І відчуття приреченості весь час в мене не було - бо я не знав, чим фільм закінчиться.
Навпаки, етапи песимізму в них чергувалися з оптимізмом (вбивство - отримання грошей - крадіжка грошей - грабунок крамниці).
От де справжня приреченість у подібному фільмі - то це у Butterfly Kiss (1995)
http://www.imdb.com/title/tt0112604/plotsummary?ref_=tt_ov_pl

Anonymous 







2014-10-19 12:55  
Додав українську багатоголоску з Ентер-фільму та замінив двоголоску плюсів з псевдо 5.1 на псевдостерео.
Ваш часовий пояс: GMT + 2 Години

Нова тема   Відповісти