Завантажити та скачати торренти українською


Крик. Квадрологія / Scream. Quadrilogy (1996/1997/2000/2011) 1080p Ukr/Eng | Sub Ukr/Eng

Нові коментарі

Нова тема   Відповісти
Автор Повідомлення
Anonymous 







2013-09-17 00:01  
Крик. Квадрологія / Scream. Quadrilogy (1996/1997/2000/2011) 1080p Ukr/Eng | Sub Ukr/Eng




Жанр: жахи, трилер, детектив, кримінальний
Країна: США
Кінокомпанія: Dimension Films, Woods Entertainment
Режисер: Вес Крейвен / Wes Craven
Актори: Девід Аркетт / David Arquette, Нів Кемпбелл / Neve Campbell, Кортні Кокс / Courteney Cox
Рейтинг MPAA: R - особам до 17 років обов'язкова присутність батьків або дорослого опікуна
Вікова категорія: 18+
Крик / Scream {Unrated} (1996) 1080p Ukr/Eng | Sub Ukr/Eng

Крик / Scream [Unrated] (1996) 1080p Ukr/Eng | Sub Ukr/Eng



Жанр: жахи, трилер, детектив, кримінальний
Країна: США



Кінокомпанія: Dimension Films, Woods Entertainment
Режисер: Вес Крейвен / Wes Craven
Актори: Девід Аркетт / David Arquette, Нів Кемпбелл / Neve Campbell, Кортні Кокс / Courteney Cox, Скіт Ульріх / Skeet Ulrich, Роуз МакГоун / Rose McGowan, Меттью Ліллард / Matthew Lillard, Джемі Кеннеді / Jamie Kennedy, В. Ерл Браун / W. Earl Brown, Дрю Беррімор / Drew Barrymore та інші

Сюжет:
Маленьке каліфорнійське містечко Санта - Роза терроризує маньяк - убивця. Маньяк - кіноман, і свої диявольські ідеї він черпає в кінофільмах. Вибрані ним молоді жертви можуть уникнути загибелі, якщо тільки вони наслідують правила, які є в цих фільмах, що він надивився: не відкривати двері незнайомцям і не питати "хто там?", не ховатися в гардеробних, не відповідати на телефонні дзвінки, не пити і не вживати наркотики, не займатися сексом. І саме головне - ніколи, ні при яких обставинах не кричати!


рейтинг MPAA: R - особам до 17 років обов'язкова присутність батьків або дорослого опікуна
Вікова категорія: 18+

Тривалість: 01:50:56
Якість: 1080p
Відео:
кодек:
розмір кадру: 1920x816
бітрейт: 8597 кб/с

Аудіо # 1:
мова: українська
переклад: двоголосий закадровий
ролі озвучили: Андрій Самінін (усі чоловічі ролі)
кодек: 2.0
бітрейт: 256 кб/с

Аудіо # 2:
мова: англійська
переклад: оригінал
кодек: 5.1
бітрейт: 384 кб/с

Субтитри # 1:
мова: українська (повні)
тип: програмні (м'які)
формат: *.srt

Субтитри # 2:
мова: англійська (повні)
тип: програмні (м'які)
формат: *.srt

Збережено оригінальні розділи, як на Blu-ray.
MediaInfo та
- [info]: frame I:954 Avg QP:18.59 size:142399
- [info]: frame P:33064 Avg QP:21.11 size: 68271
- [info]: frame B:125583 Avg QP:23.03 size: 37780
====================================================================
General
Unique ID : 220270403937696773090934549472753759793 (0xA5B68963E626DB20BF51E476F6CC3631)
Complete name : Scream 1 [UNRATED] (1996) [Ukr,Eng;sub.Ukr,Eng] 1080p [Hurtom].mkv
Format : Matroska
Format version : Version 4 / Version 2
File size : 7.15 GiB
Duration : 1h 50mn
Overall bit rate : 9 221 Kbps
Movie name : Крик / Scream [Unrated] (1996) 1080p [Hurtom]
Encoded date : UTC 2013-07-12 12:58:18
Writing application : mkvmerge v6.3.0 ('You can't stop me!') built on Jun 28 2013 20:09:41
Writing library : libebml v1.3.0 + libmatroska v1.4.0

Video
ID : 1
Format : AVC
Format/Info : Advanced Video Codec
Format profile : [email protected]
Format settings, CABAC : Yes
Format settings, ReFrames : 4 frames
Codec ID : V_MPEG4/ISO/AVC
Duration : 1h 50mn
Bit rate : 8 597 Kbps
Width : 1 920 pixels
Height : 816 pixels
Display aspect ratio : 2.35:1
Frame rate mode : Constant
Frame rate : 23.976 fps
Color space : YUV
Chroma subsampling : 4:2:0
Bit depth : 8 bits
Scan type : Progressive
Bits/(Pixel*Frame) : 0.229
Stream size : 6.51 GiB (91%)
Title : Крик / Scream [Unrated] (1996) 1080p [Freeisland-taty75]
Writing library : core 132 r2310 76a5c3a
Encoding settings : cabac=1 / ref=4 / deblock=1:-1:-1 / analyse=0x3:0x133 / me=umh / subme=10 / psy=1 / psy_rd=1.00:0.00 / mixed_ref=1 / me_range=32 / chroma_me=1 / trellis=2 / 8x8dct=1 / cqm=0 / deadzone=21,11 / fast_pskip=0 / chroma_qp_offset=-2 / threads=6 / lookahead_threads=1 / sliced_threads=0 / nr=0 / decimate=1 / interlaced=0 / bluray_compat=0 / constrained_intra=0 / bframes=8 / b_pyramid=2 / b_adapt=2 / b_bias=0 / direct=3 / weightb=1 / open_gop=0 / weightp=2 / keyint=240 / keyint_min=24 / scenecut=40 / intra_refresh=0 / rc_lookahead=50 / rc=2pass / mbtree=0 / bitrate=8597 / ratetol=2.0 / qcomp=1.00 / qpmin=0 / qpmax=51 / qpstep=4 / cplxblur=20.0 / qblur=0.5 / vbv_maxrate=38000 / vbv_bufsize=30000 / nal_hrd=none / ip_ratio=1.40 / pb_ratio=1.30 / aq=1:1.00
Language : English
Default : Yes
Forced : No
Color primaries : BT.709
Transfer characteristics : BT.709
Matrix coefficients : BT.709

Audio #1
ID : 2
Format : AC-3
Format/Info : Audio Coding 3
Mode extension : CM (complete main)
Format settings, Endianness : Big
Codec ID : A_AC3
Duration : 1h 50mn
Bit rate mode : Constant
Bit rate : 256 Kbps
Channel(s) : 2 channels
Channel positions : Front: L R
Sampling rate : 48.0 KHz
Bit depth : 16 bits
Compression mode : Lossy
Stream size : 203 MiB (3%)
Title : MVO [Новий канал] 2.0 256 Kbps [Hurtom-_oles]
Language : Ukrainian
Default : Yes
Forced : No

Audio #2
ID : 3
Format : AC-3
Format/Info : Audio Coding 3
Mode extension : CM (complete main)
Format settings, Endianness : Big
Codec ID : A_AC3
Duration : 1h 50mn
Bit rate mode : Constant
Bit rate : 384 Kbps
Channel(s) : 6 channels
Channel positions : Front: L C R, Side: L R, LFE
Sampling rate : 48.0 KHz
Bit depth : 16 bits
Compression mode : Lossy
Stream size : 305 MiB (4%)
Title : Original
Language : English
Default : No
Forced : No

Text #1
ID : 4
Format : UTF-8
Codec ID : S_TEXT/UTF8
Codec ID/Info : UTF-8 Plain Text
Title : Ukr full
Language : Ukrainian
Default : No
Forced : No

Text #2
ID : 5
Format : UTF-8
Codec ID : S_TEXT/UTF8
Codec ID/Info : UTF-8 Plain Text
Title : Eng full
Language : English
Default : No
Forced : No

Menu
00:00:00.000 : en:00:00:00.000
00:04:21.719 : en:00:04:21.719
00:12:58.778 : en:00:12:58.778
00:17:12.322 : en:00:17:12.322
00:24:48.487 : en:00:24:48.487
00:30:39.837 : en:00:30:39.837
00:38:23.300 : en:00:38:23.300
00:45:23.429 : en:00:45:23.429
00:53:21.698 : en:00:53:21.698
01:01:04.744 : en:01:01:04.744
01:07:45.061 : en:01:07:45.061
01:15:57.511 : en:01:15:57.511
01:22:59.975 : en:01:22:59.975
01:27:28.159 : en:01:27:28.159
01:30:52.155 : en:01:30:52.155
01:37:52.741 : en:01:37:52.741
Крик 2 / Scream 2 (1997) 1080p Ukr/Eng | Sub Ukr/Eng

Крик 2 / Scream 2 (1997) 1080p Ukr/Eng | Sub Ukr/Eng



Жанр: жахи, детектив
Країна: США



Кінокомпанія: Dimension Films, Konrad Pictures, Craven-Maddalena Films
Режисер: Вес Крейвен / Wes Craven
Актори: Девід Аркетт / David Arquette, Нів Кемпбелл / Neve Campbell, Кортні Кокс / Courteney Cox, Лорі Меткаф / Laurie Metcalf, Джеррі О''Коннелл / Jerry O''Connell, Джеда Пінкетт / Jada Pinkett, Лів Шрайбер / Liev Schreiber, Тімоті Оліфант / Timothy Olyphant, Джемі Кеннеді / Jamie Kennedy, Портіа де Россі / Portia de Rossi, Сара Мішель Ґеллар / Sarah Michelle Gellar, Ребекка Гейхарт / Rebecca Gayheart, Льюіс Аркетт / Lewis Arquette, Дуейн Мартін / Duane Martin, Еліз Ніл / Elise Neal, Гезер Ґрем / Heather Graham та інші

Сюжет:
Минуло два роки після кривавої бійні у Вудсборо. Сідні Прескотт поступила у коледж, виїхавши геть від божевільних спогадів. Але минуле знову наздоганяє її: гучна історія стала книгою - бестселером Гейл Уезерс, а тепер ще вийшов фільм про ті самі події, що сколихнув нову хвилю терору. І жах ожив знову, і знову у кожному зустрічному бачиться вбивця! ...


рейтинг MPAA: R - особам до 17 років обов'язкова присутність батьків або дорослого опікуна
Вікова категорія: 18+

Тривалість: 02:00:13
Якість: 1080p
Відео:
кодек:
розмір кадру: 1920x816
бітрейт: 7803 кб/с

Аудіо # 1:
мова: українська
переклад: двоголосий закадровий
ролі озвучили: Андрій Самінін (усі чоловічі ролі)
кодек: 2.0
бітрейт: 256 кб/с

Аудіо # 2:
мова: англійська
переклад: оригінал
кодек: 5.1
бітрейт: 384 кб/с

Субтитри # 1:
мова: українська (повні)
тип: програмні (м'які)
формат: *.srt

Субтитри # 2:
мова: англійська (повні)
тип: програмні (м'які)
формат: *.srt

Збережено оригінальні розділи, як на Blu-ray.
MediaInfo та
- [info]: frame I:1104 Avg QP:18.94 size:150552
- [info]: frame P:38283 Avg QP:21.33 size: 63968
- [info]: frame B:133558 Avg QP:23.24 size: 33013
======================================================================================
General
Unique ID : 171396145037299798864040061496379918890 (0x80F1B262021D38D68C255807B8254A2A)
Complete name : Scream 2 (1997) [Ukr,Eng;sub.Ukr,Eng] 1080p [Hurtom].mkv
Format : Matroska
Format version : Version 4 / Version 2
File size : 7.08 GiB
Duration : 2h 0mn
Overall bit rate : 8 433 Kbps
Movie name : Крик 2 / Scream 2 (1997) 1080p [Hurtom]
Encoded date : UTC 2013-07-14 17:01:14
Writing application : mkvmerge v6.3.0 ('You can't stop me!') built on Jun 28 2013 20:09:41
Writing library : libebml v1.3.0 + libmatroska v1.4.0

Video
ID : 1
Format : AVC
Format/Info : Advanced Video Codec
Format profile : [email protected]
Format settings, CABAC : Yes
Format settings, ReFrames : 4 frames
Codec ID : V_MPEG4/ISO/AVC
Duration : 2h 0mn
Bit rate : 7 803 Kbps
Width : 1 920 pixels
Height : 816 pixels
Display aspect ratio : 2.35:1
Frame rate mode : Constant
Frame rate : 23.976 fps
Color space : YUV
Chroma subsampling : 4:2:0
Bit depth : 8 bits
Scan type : Progressive
Bits/(Pixel*Frame) : 0.208
Stream size : 6.40 GiB (90%)
Title : Крик 2 / Scream 2 (1997) 1080p [Freeisland-taty75]
Writing library : core 132 r2310 76a5c3a
Encoding settings : cabac=1 / ref=4 / deblock=1:-1:-1 / analyse=0x3:0x133 / me=umh / subme=10 / psy=1 / psy_rd=1.00:0.00 / mixed_ref=1 / me_range=32 / chroma_me=1 / trellis=2 / 8x8dct=1 / cqm=0 / deadzone=21,11 / fast_pskip=0 / chroma_qp_offset=-2 / threads=6 / lookahead_threads=1 / sliced_threads=0 / nr=0 / decimate=1 / interlaced=0 / bluray_compat=0 / constrained_intra=0 / bframes=8 / b_pyramid=2 / b_adapt=2 / b_bias=0 / direct=3 / weightb=1 / open_gop=0 / weightp=2 / keyint=240 / keyint_min=24 / scenecut=40 / intra_refresh=0 / rc_lookahead=50 / rc=2pass / mbtree=0 / bitrate=7803 / ratetol=2.0 / qcomp=1.00 / qpmin=0 / qpmax=51 / qpstep=4 / cplxblur=20.0 / qblur=0.5 / vbv_maxrate=38000 / vbv_bufsize=30000 / nal_hrd=none / ip_ratio=1.40 / pb_ratio=1.30 / aq=1:1.00
Language : English
Default : Yes
Forced : No
Color primaries : BT.709
Transfer characteristics : BT.709
Matrix coefficients : BT.709

Audio #1
ID : 2
Format : AC-3
Format/Info : Audio Coding 3
Mode extension : CM (complete main)
Format settings, Endianness : Big
Codec ID : A_AC3
Duration : 2h 0mn
Bit rate mode : Constant
Bit rate : 256 Kbps
Channel(s) : 2 channels
Channel positions : Front: L R
Sampling rate : 48.0 KHz
Bit depth : 16 bits
Compression mode : Lossy
Stream size : 220 MiB (3%)
Title : DVO [Новий канал] 2.0 256 kbps
Language : Ukrainian
Default : Yes
Forced : No

Audio #2
ID : 3
Format : AC-3
Format/Info : Audio Coding 3
Mode extension : CM (complete main)
Format settings, Endianness : Big
Codec ID : A_AC3
Duration : 2h 0mn
Bit rate mode : Constant
Bit rate : 384 Kbps
Channel(s) : 6 channels
Channel positions : Front: L C R, Side: L R, LFE
Sampling rate : 48.0 KHz
Bit depth : 16 bits
Compression mode : Lossy
Stream size : 330 MiB (5%)
Title : Original
Language : English
Default : No
Forced : No

Text #1
ID : 4
Format : UTF-8
Codec ID : S_TEXT/UTF8
Codec ID/Info : UTF-8 Plain Text
Title : Ukr full
Language : Ukrainian
Default : No
Forced : No

Text #2
ID : 5
Format : UTF-8
Codec ID : S_TEXT/UTF8
Codec ID/Info : UTF-8 Plain Text
Title : Eng full
Language : English
Default : No
Forced : No

Menu
00:00:00.000 : en:00:00:00.000
00:11:48.499 : en:00:11:48.499
00:17:17.036 : en:00:17:17.036
00:24:08.321 : en:00:24:08.321
00:28:03.932 : en:00:28:03.932
00:37:08.851 : en:00:37:08.851
00:40:54.326 : en:00:40:54.326
00:46:31.246 : en:00:46:31.246
00:54:53.790 : en:00:54:53.790
00:59:26.563 : en:00:59:26.563
01:06:09.799 : en:01:06:09.799
01:12:56.747 : en:01:12:56.747
01:23:06.690 : en:01:23:06.690
01:27:24.530 : en:01:27:24.530
01:33:36.569 : en:01:33:36.569
01:45:27.112 : en:01:45:27.112
Крик 3 / Scream 3 (2000) 1080p 2хUkr/Eng | Sub Ukr/Eng

Крик 3 / Scream 3 (2000) 1080p 2хUkr/Eng | Sub Ukr/Eng



Жанр: жахи, трилер, детектив
Країна: США



Кінокомпанія: Dimension Films, Konrad Pictures, Craven-Maddalena Films
Режисер: Вес Крейвен / Wes Craven
Актори: Девід Аркетт / David Arquette, Нів Кемпбелл / Neve Campbell, Кортні Кокс / Courteney Cox, Патрік Демпсі / Patrick Dempsey, Паркер Поузі / Parker Posey, Ленс Хенріксен / Lance Henriksen та інші.

Сюжет:
Як і мало статися, жахливі події у Вудсборо стали ідеальним матеріалом для Голлівуду: там знімалася вже третя серія фільму "Удар ножем". Тим часом Сідні веде відокремлений спосіб життя в Північній Каліфорнії, де і дізнається про нові жахливі вбивства. Минуле знову призначає їй смертельну зустріч, і на цей раз коло повинно замкнутися ...


рейтинг MPAA: R - особам до 17 років обов'язкова присутність батьків або дорослого опікуна
Вікова категорія: 18+

Тривалість: 01:56:35
Якість: 1080p
Відео:
кодек:
розмір кадру: 1920x814
бітрейт: 8355 кб/с

Аудіо # 1:
мова: українська
переклад: двоголосий закадровий
кодек: 5.1
бітрейт: 384 кб/с

Аудіо # 2:
мова: українська
переклад: двоголосий закадровий
кодек: 5.1
бітрейт: 384 кб/с

Аудіо # 3:
мова: англійська
переклад: оригінал
кодек: 5.1
бітрейт: 384 кб/с

Субтитри # 1:
мова: українська (повні)
тип: програмні (м'які)
формат: *.srt

Субтитри # 2:
мова: англійська (повні)
тип: програмні (м'які)
формат: *.srt

Збережено оригінальні розділи, як на Blu-ray.
MediaInfo та
- [info]: frame I:1217 Avg QP:19.01 size:170564
- [info]: frame P:34672 Avg QP:21.02 size: 65685
- [info]: frame B:131843 Avg QP:23.37 size: 36471
======================================================================================
General
Unique ID : 216183435608597198628458771104847782056 (0xA2A36A4B53E9722AA6C57F24A7BA60A8)
Complete name : Scream 3 (2000) [2xUkr,Eng;sub.Ukr,Eng] 1080p [Hurtom].mkv
Format : Matroska
Format version : Version 4 / Version 2
File size : 7.63 GiB
Duration : 1h 56mn
Overall bit rate : 9 367 Kbps
Movie name : Крик 3 / Scream 3 (2000) 1080p [Hurtom]
Encoded date : UTC 2013-07-14 19:02:42
Writing application : mkvmerge v6.3.0 ('You can't stop me!') built on Jun 28 2013 20:09:41
Writing library : libebml v1.3.0 + libmatroska v1.4.0

Video
ID : 1
Format : AVC
Format/Info : Advanced Video Codec
Format profile : [email protected]
Format settings, CABAC : Yes
Format settings, ReFrames : 4 frames
Codec ID : V_MPEG4/ISO/AVC
Duration : 1h 56mn
Bit rate : 8 355 Kbps
Width : 1 920 pixels
Height : 814 pixels
Display aspect ratio : 2.35:1
Frame rate mode : Constant
Frame rate : 23.976 fps
Color space : YUV
Chroma subsampling : 4:2:0
Bit depth : 8 bits
Scan type : Progressive
Bits/(Pixel*Frame) : 0.223
Stream size : 6.64 GiB (87%)
Title : Крик 3 / Scream 3 (2000) 1080p [Freeisland-taty75]
Writing library : core 132 r2310 76a5c3a
Encoding settings : cabac=1 / ref=4 / deblock=1:-1:-1 / analyse=0x3:0x133 / me=umh / subme=10 / psy=1 / psy_rd=1.00:0.00 / mixed_ref=1 / me_range=32 / chroma_me=1 / trellis=2 / 8x8dct=1 / cqm=0 / deadzone=21,11 / fast_pskip=0 / chroma_qp_offset=-2 / threads=6 / lookahead_threads=1 / sliced_threads=0 / nr=0 / decimate=1 / interlaced=0 / bluray_compat=0 / constrained_intra=0 / bframes=8 / b_pyramid=2 / b_adapt=2 / b_bias=0 / direct=3 / weightb=1 / open_gop=0 / weightp=2 / keyint=240 / keyint_min=24 / scenecut=40 / intra_refresh=0 / rc_lookahead=50 / rc=2pass / mbtree=0 / bitrate=8355 / ratetol=2.0 / qcomp=1.00 / qpmin=0 / qpmax=51 / qpstep=4 / cplxblur=20.0 / qblur=0.5 / vbv_maxrate=38000 / vbv_bufsize=30000 / nal_hrd=none / ip_ratio=1.40 / pb_ratio=1.30 / aq=1:1.00
Language : English
Default : Yes
Forced : No
Color primaries : BT.709
Transfer characteristics : BT.709
Matrix coefficients : BT.709

Audio #1
ID : 2
Format : AC-3
Format/Info : Audio Coding 3
Mode extension : CM (complete main)
Format settings, Endianness : Big
Codec ID : A_AC3
Duration : 1h 56mn
Bit rate mode : Constant
Bit rate : 384 Kbps
Channel(s) : 6 channels
Channel positions : Front: L C R, Side: L R, LFE
Sampling rate : 48.0 KHz
Bit depth : 16 bits
Compression mode : Lossy
Delay relative to video : 1s 717ms
Stream size : 320 MiB (4%)
Title : DVO [1+1] 5.1 384 kbps [Hurtom-_oles]
Language : Ukrainian
Default : Yes
Forced : No

Audio #2
ID : 3
Format : AC-3
Format/Info : Audio Coding 3
Mode extension : CM (complete main)
Format settings, Endianness : Big
Codec ID : A_AC3
Duration : 1h 56mn
Bit rate mode : Constant
Bit rate : 256 Kbps
Channel(s) : 2 channels
Channel positions : Front: L R
Sampling rate : 48.0 KHz
Bit depth : 16 bits
Compression mode : Lossy
Stream size : 213 MiB (3%)
Title : DVO [Новий канал] 2.0 256 kbps
Language : Ukrainian
Default : No
Forced : No

Audio #3
ID : 4
Format : AC-3
Format/Info : Audio Coding 3
Mode extension : CM (complete main)
Format settings, Endianness : Big
Codec ID : A_AC3
Duration : 1h 56mn
Bit rate mode : Constant
Bit rate : 384 Kbps
Channel(s) : 6 channels
Channel positions : Front: L C R, Side: L R, LFE
Sampling rate : 48.0 KHz
Bit depth : 16 bits
Compression mode : Lossy
Stream size : 320 MiB (4%)
Title : Original
Language : English
Default : No
Forced : No

Text #1
ID : 5
Format : UTF-8
Codec ID : S_TEXT/UTF8
Codec ID/Info : UTF-8 Plain Text
Title : Ukr full
Language : Ukrainian
Default : No
Forced : No

Text #2
ID : 6
Format : UTF-8
Codec ID : S_TEXT/UTF8
Codec ID/Info : UTF-8 Plain Text
Title : Eng full
Language : English
Default : No
Forced : No

Menu
00:00:00.000 : en:00:00:00.000
00:09:27.733 : en:00:09:27.733
00:15:39.104 : en:00:15:39.104
00:22:35.520 : en:00:22:35.520
00:30:35.166 : en:00:30:35.166
00:37:28.412 : en:00:37:28.412
00:45:48.287 : en:00:45:48.287
00:52:14.339 : en:00:52:14.339
00:59:47.417 : en:00:59:47.417
01:11:59.440 : en:01:11:59.440
01:18:50.183 : en:01:18:50.183
01:25:01.763 : en:01:25:01.763
01:30:51.612 : en:01:30:51.612
01:35:34.520 : en:01:35:34.520
01:42:21.218 : en:01:42:21.218
01:47:22.978 : en:01:47:22.978
Крик 4 / Scream 4 (2011) 2xUkr/Eng | Sub Eng

Крик 4 / Scream 4 (2011) 2xUkr/Eng | Sub Eng



Жанр: жахи, детектив
Країна: США



Кінокомпанія: Dimension Films, Corvus Corax Productions, Outerbanks Entertainment
Режисер: Вес Крейвен / Wes Craven
Актори: Нів Кемпбелл / Neve Campbell, Девід Аркетт / David Arquette, Кортні Кокс / Courteney Cox, Анна Пеквін / Anna Paquin, Крістен Белл / Kristen Bell, Хайден Панеттьєрі / Hayden Panettiere, Емма Робертс / Emma Roberts, Ерік Кнудсен / Erik Knudsen, Гезер Ґрем / Heather Graham, Ентоні Андерсон / Anthony Anderson та інші

Сюжет:
Сідні Прескотт останні кілька років провела у відносній тиші та спокої. Життя потихеньку налагоджується, далеко від спалахів та відеокамер папарацці. Але коли знаходять труп одного зі студентів, світ Сідні Прескотт знову починає руйнуватись. Всьому виною вбивця у масці "Обличчя Привида".


рейтинг MPAA: R - особам до 17 років обов'язкова присутність батьків або дорослого опікуна
Вікова категорія: 18+

Тривалість: 01:50:47
Якість: 1080p
Відео:
кодек:
розмір кадру: 1920x800
бітрейт: 8673 кб/с

Аудіо # 1: (Інтер-Фільм)
мова: українська - Студія «Ді Ар»
переклад: професійний дубльований
ролі дублювали: Георгій Гавриленко (Роджер Джексон / Голос), Катерина Брайковська (Нів Кембелл / Сідні Прескот), Катерина Буцька (Емма Робертс / Джилл Робертс), Тетяна Антонова?, Євген Пашин (Девід Аркет / Дьюї Райлі), Михайло Тишин (Ентоні Ендерсон / Ентоні Перкінс), Ольга Радчук (Кортні Кокс / Гейл Везерс-Райлі), Роман Чупіс (Адам Броуді / Росс Госс), Андрій Федінчик та інші.
кодек: 5.1
бітрейт: 448 кб/с

Аудіо # 2:
мова: українська
переклад: багатоголосий закадровий
кодек: 2.0
бітрейт: 192 кб/с

Аудіо # 3:
мова: англійська
переклад: оригінал
кодек: 5.1
бітрейт: 448 кб/с

Субтитри # 1:
мова: англійська (повні)
тип: програмні (м'які)
формат: *.srt

Збережено оригінальні розділи, як на Blu-ray.
MediaInfo та
- [info]: frame I:1188 Avg QP:15.55 size:169378
- [info]: frame P:34035 Avg QP:17.62 size: 71290
- [info]: frame B:124321 Avg QP:20.39 size: 36742
======================================================================================
General
Unique ID : 180766912862350781746847067302595664518 (0x87FE70E83BCF18CF9DF2BB0E8D981A86)
Complete name : Scream 4 (2011) [2xUkr,Eng;sub.Eng] 1080p [Hurtom].mkv
Format : Matroska
Format version : Version 4 / Version 2
File size : 7.54 GiB
Duration : 1h 50mn
Overall bit rate : 9 749 Kbps
Movie name : Крик 4/ Scream 4 (2011) 1080p [Hurtom]
Encoded date : UTC 2013-09-15 17:15:33
Writing application : mkvmerge v6.3.0 ('You can't stop me!') built on Jun 28 2013 20:09:41
Writing library : libebml v1.3.0 + libmatroska v1.4.0

Video
ID : 1
Format : AVC
Format/Info : Advanced Video Codec
Format profile : [email protected]
Format settings, CABAC : Yes
Format settings, ReFrames : 4 frames
Codec ID : V_MPEG4/ISO/AVC
Duration : 1h 50mn
Bit rate : 8 673 Kbps
Width : 1 920 pixels
Height : 800 pixels
Display aspect ratio : 2.40:1
Frame rate mode : Constant
Frame rate : 24.000 fps
Color space : YUV
Chroma subsampling : 4:2:0
Bit depth : 8 bits
Scan type : Progressive
Bits/(Pixel*Frame) : 0.235
Stream size : 6.55 GiB (87%)
Title : Крик 4/ Scream 4 (2011) 1080p [Freeisland-taty75]
Writing library : core 132 r2310 76a5c3a
Encoding settings : cabac=1 / ref=4 / deblock=1:-1:-1 / analyse=0x3:0x133 / me=umh / subme=10 / psy=1 / psy_rd=1.00:0.00 / mixed_ref=1 / me_range=32 / chroma_me=1 / trellis=2 / 8x8dct=1 / cqm=0 / deadzone=21,11 / fast_pskip=0 / chroma_qp_offset=-2 / threads=6 / lookahead_threads=1 / sliced_threads=0 / nr=0 / decimate=1 / interlaced=0 / bluray_compat=0 / constrained_intra=0 / bframes=8 / b_pyramid=2 / b_adapt=2 / b_bias=0 / direct=3 / weightb=1 / open_gop=0 / weightp=2 / keyint=240 / keyint_min=24 / scenecut=40 / intra_refresh=0 / rc_lookahead=50 / rc=2pass / mbtree=0 / bitrate=8673 / ratetol=2.0 / qcomp=1.00 / qpmin=0 / qpmax=51 / qpstep=4 / cplxblur=20.0 / qblur=0.5 / vbv_maxrate=38000 / vbv_bufsize=30000 / nal_hrd=none / ip_ratio=1.40 / pb_ratio=1.30 / aq=1:1.00
Language : English
Default : Yes
Forced : No
Color primaries : BT.709
Transfer characteristics : BT.709
Matrix coefficients : BT.709

Audio #1
ID : 2
Format : AC-3
Format/Info : Audio Coding 3
Mode extension : CM (complete main)
Format settings, Endianness : Big
Codec ID : A_AC3
Duration : 1h 50mn
Bit rate mode : Constant
Bit rate : 448 Kbps
Channel(s) : 6 channels
Channel positions : Front: L C R, Side: L R, LFE
Sampling rate : 48.0 KHz
Bit depth : 16 bits
Compression mode : Lossy
Delay relative to video : 7s 741ms
Stream size : 355 MiB (5%)
Title : Dub 5.1 448 kbps [Hurtom]
Language : Ukrainian
Default : Yes
Forced : No

Audio #2
ID : 3
Format : AC-3
Format/Info : Audio Coding 3
Mode extension : CM (complete main)
Format settings, Endianness : Big
Codec ID : A_AC3
Duration : 1h 50mn
Bit rate mode : Constant
Bit rate : 192 Kbps
Channel(s) : 2 channels
Channel positions : Front: L R
Sampling rate : 48.0 KHz
Bit depth : 16 bits
Compression mode : Lossy
Delay relative to video : 7s 611ms
Stream size : 152 MiB (2%)
Title : MVO [TET] 2.0 192 kbps [Hurtom-_oles]
Language : Ukrainian
Default : No
Forced : No

Audio #3
ID : 4
Format : AC-3
Format/Info : Audio Coding 3
Mode extension : CM (complete main)
Format settings, Endianness : Big
Codec ID : A_AC3
Duration : 1h 50mn
Bit rate mode : Constant
Bit rate : 448 Kbps
Channel(s) : 6 channels
Channel positions : Front: L C R, Side: L R, LFE
Sampling rate : 48.0 KHz
Bit depth : 16 bits
Compression mode : Lossy
Stream size : 355 MiB (5%)
Title : Original
Language : English
Default : No
Forced : No

Text
ID : 5
Format : UTF-8
Codec ID : S_TEXT/UTF8
Codec ID/Info : UTF-8 Plain Text
Title : Eng full
Language : English
Default : No
Forced : No

Menu
00:00:00.000 : en:00:00:00.000
00:05:38.291 : en:00:05:38.291
00:10:56.708 : en:00:10:56.708
00:15:04.000 : en:00:15:04.000
00:20:42.625 : en:00:20:42.625
00:27:03.000 : en:00:27:03.000
00:31:24.416 : en:00:31:24.416
00:35:07.833 : en:00:35:07.833
00:41:45.208 : en:00:41:45.208
00:45:07.625 : en:00:45:07.625
00:51:49.416 : en:00:51:49.416
01:00:04.416 : en:01:00:04.416
01:10:26.625 : en:01:10:26.625
01:20:22.208 : en:01:20:22.208
01:31:57.208 : en:01:31:57.208
01:43:34.000 : en:01:43:34.000


Джерела та подяки: &
ріп відео, оригінальні звук та субтитри - taty75 (Freeisland); українські доріжки та субтитри - _oles - зведення, dvorsky, ua2004, karvai0, xSlim - запис з ТБ; український постер - abodnya і hellforces (всі - Гуртом).

ЗАЛИШАЙТЕСЬ ЯКОМОГА ДОВШЕ НА РОЗДАЧІ!

СКАЧАВ САМ - ДАЙ СКАЧАТИ ІНШИМ


Золотий реліз (завантажене не впливає на рейтинг)
 Трекер:    Зареєстрований   

Завантажити / скачати фільм українською



відео для новачків



 Зареєстрований:   2013-09-17 00:01
 Розмір:   29.4 GB 
 Оцінка фільму:   4.8/10 (Голосів: 21)
   
Ua.bos_01 
VIP


З нами з: 22.06.15
Востаннє: 06.12.16
Повідомлень: 1291

2015-08-20 13:45  
Один з кращих трилерів, які я колись бачив! Однозначно присутнє у домашній відео-колекції.
n.winchester 
Свій


З нами з: 13.10.13
Востаннє: 23.10.16
Повідомлень: 51

2015-11-05 22:24  
Пам'ятаю коли була трохи менша завжди ця маска бісила. Коли нарешті добралась до перегляду фільму мені наскільки сподобалось, що аж добавила у свою колекцію. Найкращий трилер, найкращий сюжет, гра акторів на вищому рівні, все супер. Фільми заслуговую 12 з 10.
Ua.bos_01 
VIP


З нами з: 22.06.15
Востаннє: 06.12.16
Повідомлень: 1291

2015-11-27 19:57  
n.winchester - в мене до цих пір ця маска є! Ще з 9-го класу. Вже 11 рік минає :-)
n.winchester 
Свій


З нами з: 13.10.13
Востаннє: 23.10.16
Повідомлень: 51

2015-12-18 17:23  
Ua.bos_01
старіємо, жаль що молоде покоління не розуміє класичні фільми і дивляться різне сміття, яке автоматично засмічує мозги.
Класичні фільми: звісно Крик, Матриця, Зоряні війни, Сяйво, Психо, В джазі тільки дівчата, П'ятий елемент, Армагедон, Міцний горішок, Володар кілець, Хроніки Рідіка ітд.

manreg 
Новенький


З нами з: 04.05.12
Востаннє: 05.12.16
Повідомлень: 24

2016-01-18 12:56  
Так, я вже велика людина, можна й Крик подивитися =)

n.winchester Нажаль але у чомусь сгоден!

Ua.bos_01 
VIP


З нами з: 22.06.15
Востаннє: 06.12.16
Повідомлень: 1291

2016-01-18 19:49  
n.winchester
Молоде покоління багато чого не розуміє та не сприймає як належне, на жаль. Однак в цьому є і наша вина. В даному випадку - мало розповідаємо дітлахам про гідні уваги фільми =)

Ваш часовий пояс: GMT + 2 Години

Нова тема   Відповісти