Завантажити та скачати торренти українською


Стартрек: Відплата / Зоряний шлях: У пітьму / Star Trek Into Darkness (2013) Remux 1080p Ukr/Eng | Sub Ukr/Eng

Нові коментарі

Нова тема   Відповісти
Автор Повідомлення
Drool 
VIP


З нами з: 17.04.10
Востаннє: 06.12.16
Повідомлень: 1264

2013-09-16 12:07  
Стартрек: Відплата / Зоряний шлях: У пітьму / Star Trek Into Darkness (2013) Remux 1080p Ukr/Eng | Sub Ukr/Eng

Стартрек: Відплата / Зоряний шлях: У пітьму / Star Trek Into Darkness (2013) Remux 1080p Ukr/Eng | Sub Ukr/Eng
Ще постер


Жанр: екшн, пригодницький, фантастика
Країна: США



Кінокомпанія: Bad Robot, Paramount Pictures, Skydance Productions
Режисер: Джей Джей Абрамс
Актори: Кріс Пайн, Закарі Квінто, Бенедикт Камбербетч, Саймон Пеґґ, Карл Урбан, Зої Салдана, Еліс Ів, Джон Чо, Антон Єльчин, Пітер Веллер, Брюс Ґрінвуд, Леонард Німой та інші

Сюжет:
Коли команда Ентерпрайза отримує наказ повернутися додому, то бачить, що неспинна хвиля жаху, що йде зсередини їх власної організації, знищила флот і все, за що вона боролася, зануривши Землю в безодню кризи. Маючи також і особисті мотиви, капітан Кірк очолює переслідування у саме серце зони військового конфлікту, щоб схопити людину, яка і є тією зброєю масового ураження. Просуваючись уперед, наші герої стають учасниками грандіозної шахової партії, де на кону - життя. Тепер кохання буде випробуване на міцність, дружні зв'язки розірвані, і багато що буде принесено в жертву для єдиної сім'ї, яка залишилася у Кірка - його команди.


Тривалість: 02:12:06
Якість: Remux 1080p
Відео:
кодек:
розмір кадру: 1920x1080
бітрейт: 26.2 Мб/с

Аудіо # 1:
мова: українська
переклад: професійний дубльований
кодек: 5.1
бітрейт: 448 кб/с

Аудіо # 2:
мова: англійська
переклад: оригінал
кодек: -HD 7.1
бітрейт: 4342 кб/с

Аудіо # 3:
мова: англійська (коментарі)
переклад: оригінал
кодек: 5.1
бітрейт: 640 кб/с

Джерело озвучення:


Субтитри # 1:
мова: українська (форсовані)
тип: програмні (м'які)
формат: *.srt

Субтитри # 2:
мова: українська (повні)
тип: програмні (м'які)
формат: *.srt

Субтитри # 3:
мова: англійська
тип: програмні (м'які)
формат: *.srt

Субтитри # 4:
мова: англійська (SDH)
тип: програмні (м'які)
формат: *.srt

Субтитри # 5:
мова: англійська (SDH Colored)
тип: програмні (м'які)
формат: *.srt
MediaInfo
General
Unique ID : 162108860531245655067549086221469088495 (0x79F507E7688D1CBF7B129A531545FAEF)
Complete name : Star.Trek.Into.Darkness.2013.Remux.1080p.Ukr.Eng.mkv
Format : Matroska
Format version : Version 4 / Version 2
File size : 29.2 GiB
Duration : 2h 12mn
Overall bit rate mode : Variable
Overall bit rate : 31.6 Mbps
Movie name : Стартрек: Возмездие / Star Trek
Into Darkness (2013)-Remux 1080p от Neofilm
Encoded date : UTC 2010-02-22 21:41:31
Writing application : mkvmerge v6.1.0 ('Old Devil')
built on Apr 14 2013 12:26:22
Writing library : libebml v1.3.0 + libmatroska
v1.4.0

Video
ID : 1
Format : AVC
Format/Info : Advanced Video Codec
Format profile : [email protected]
Format settings, CABAC : Yes
Format settings, ReFrames : 4 frames
Codec ID : V_MPEG4/ISO/AVC
Duration : 2h 12mn
Bit rate mode : Variable
Maximum bit rate : 31.7 Mbps
Width : 1 920 pixels
Height : 1 080 pixels
Display aspect ratio : 16:9
Frame rate : 23.976 fps
Color space : YUV
Chroma subsampling : 4:2:0
Bit depth : 8 bits
Scan type : Progressive
Title : Зоряний шлях: У пітьму / Star Trek Into Darkness (2013) Remux 1080p
Default : No
Forced : No

Audio #1
ID : 2
Format : AC-3
Format/Info : Audio Coding 3
Mode extension : CM (complete main)
Codec ID : A_AC3
Duration : 2h 12mn
Bit rate mode : Constant
Bit rate : 448 Kbps
Channel(s) : 6 channels
Channel positions : Front: L C R, Side: L R, LFE
Sampling rate : 48.0 KHz
Bit depth : 16 bits
Compression mode : Lossy
Delay relative to video : 100ms
Stream size : 423 MiB (1%)
Title : 5.1; 448 kbps; Dub {LeDoyen Studio}
Language : Ukrainian
Default : Yes
Forced : No

Audio #2
ID : 3
Format : TrueHD
Codec ID : A_TRUEHD
Duration : 2h 12mn
Bit rate mode : Variable
Maximum bit rate : 6 510 Kbps
Channel(s) : 8 channels
Channel positions : Front: L C R, Side: L R, Back: L
R, LFE
Sampling rate : 48.0 KHz
Compression mode : Lossless
Title : TrueHD 7.1 / 4342 kbps / Original
Language : English
Default : No
Forced : No

Audio #3
ID : 4
Format : AC-3
Format/Info : Audio Coding 3
Mode extension : CM (complete main)
Codec ID : A_AC3
Duration : 2h 12mn
Bit rate mode : Constant
Bit rate : 640 Kbps
Channel(s) : 6 channels
Channel positions : Front: L C R, Side: L R, LFE
Sampling rate : 48.0 KHz
Bit depth : 16 bits
Compression mode : Lossy
Stream size : 605 MiB (2%)
Title : 5.1 / 640 kbps / Descriptive
Language : English
Default : No
Forced : No

Text #1
ID : 5
Format : UTF-8
Codec ID : S_TEXT/UTF8
Codec ID/Info : UTF-8 Plain Text
Title : forced
Language : Ukrainian
Default : Yes
Forced : No

Text #2
ID : 6
Format : UTF-8
Codec ID : S_TEXT/UTF8
Codec ID/Info : UTF-8 Plain Text
Title : full
Language : Ukrainian
Default : No
Forced : No

Text #3
ID : 7
Format : UTF-8
Codec ID : S_TEXT/UTF8
Codec ID/Info : UTF-8 Plain Text
Title : full
Language : English
Default : No
Forced : No

Text #4
ID : 8
Format : UTF-8
Codec ID : S_TEXT/UTF8
Codec ID/Info : UTF-8 Plain Text
Title : SDH
Language : English
Default : No
Forced : No

Text #5
ID : 9
Format : UTF-8
Codec ID : S_TEXT/UTF8
Codec ID/Info : UTF-8 Plain Text
Title : SDH Colored
Language : English
Default : No
Forced : No

Menu
00:00:00.000 : en:Chapter 1
00:10:20.369 : en:Chapter 2
00:19:21.493 : en:Chapter 3
00:30:03.968 : en:Chapter 4
00:40:09.115 : en:Chapter 5
00:46:05.262 : en:Chapter 6
00:56:38.228 : en:Chapter 7
01:06:35.783 : en:Chapter 8
01:12:55.662 : en:Chapter 9
01:22:45.752 : en:Chapter 10
01:30:54.740 : en:Chapter 11
01:38:36.368 : en:Chapter 12
01:47:09.548 : en:Chapter 13
01:54:17.141 : en:Chapter 14
01:59:20.653 : en:Chapter 15
02:03:18.307 : en:Chapter 16
Скріншоти








Джерело:
Особиста оцінка: 10 - без зайвих вагань рекомендую всім!


Золотий реліз (завантажене не впливає на рейтинг)
 Трекер:    Зареєстрований   

Завантажити / скачати фільм українською



відео для новачків



 Зареєстрований:   2013-09-16 21:34
 Розмір:   29.17 GB 
 Оцінка фільму:   9.5/10 (Голосів: 20)
   
bot 
робот


З нами з: 30.09.07
Востаннє: 26.05.05
Повідомлень: 16019

2013-09-16 12:07  
Тему перенесено з Фільми в HD до форуму Анонси релізів від Відео Гуртом


Drool

bot 
робот


З нами з: 30.09.07
Востаннє: 26.05.05
Повідомлень: 16019

2013-09-16 18:05  
Тему перенесено з Анонси релізів від Відео Гуртом до форуму Фільми в HD


Drool

Drool 
VIP


З нами з: 17.04.10
Востаннє: 06.12.16
Повідомлень: 1264

2013-09-16 21:36  
Увага. В роздачі було помічено дрібний, десь біля 100 мс, але все ж розсинхрон. Доріжку посунуто, розсинхрон ліквідовано, роздачу оновлено, прохання перекачати.
Приносимо свої вибачення, трафік за скачане компенсовано.

lnkvisitor 
Новенький


З нами з: 15.09.13
Востаннє: 31.10.16
Повідомлень: 9

2013-09-16 22:19  
Буду на роздачi приблизно з 11:00.
paulstenley 
Новенький


З нами з: 20.08.11
Востаннє: 05.12.16
Повідомлень: 7

2013-12-25 20:35  
На даний момент розсинхрон існує. 1-2 секунди.
Drool 
VIP


З нами з: 17.04.10
Востаннє: 06.12.16
Повідомлень: 1264

2013-12-25 21:31  
paulstenley написано:
На даний момент розсинхрон існує. 1-2 секунди.

Скоріш за все не вистачає потужності. Бо ніхто не помітив ніякого розсинхрону.

lcds 
Свій


З нами з: 08.07.13
Востаннє: 02.12.16
Повідомлень: 111

2014-06-10 10:35  
Дякую, видовищна стрічка.
...додав колориту "азіровський" сленг інженера.

Ваш часовий пояс: GMT + 2 Години

Нова тема   Відповісти