Завантажити та скачати торренти українською


Екзорцизм Емілі Роуз / The Exorcism of Emily Rose [UNRATED] (2005) 720p Ukr/Eng | Sub Ukr/Eng

Нові коментарі

Нова тема   Відповісти
Автор Повідомлення
braveboy 
Відео Гуртом - команда HD
Відео Гуртом - команда HD


З нами з: 15.06.10
Востаннє: 29.10.16
Повідомлень: 958

2013-09-15 08:07  

Екзорцизм Емілі Роуз / The Exorcism of Emily Rose [UNRATED] (2005) 720p Ukr/Eng | Sub Ukr/Eng


Екзорцизм Емілі Роуз / The Exorcism of Emily Rose [UNRATED] (2005) 720p Ukr/Eng | Sub Ukr/Eng


«What happened to Emily?»


Жанр: жахи, трилер, драма, кримінальний
Країна: США



Кінокомпанія: Screen Gems, Lakeshore Entertainment, Firm Films
Режисер: Скотт Дерріксон
Актори: Лора Лінні, Том Уілкінсон, Кемпбелл Скотт, Дженніфер Карпентер, Колм Фіорі, Джошуа Клоуз, Кеннет Велш, Дункан Фрейзер, ДжейАр Борн, Мері Бет Херт

Сюжет:
Фільм заснований на реальних подіях. У 1976 році сеанс вигнання диявола з молодої дівчини закінчився її смертю. Священикові-екзорцисту, що проводив обряд, було пред'явлено звинувачення у вбивстві, хоча процес був офіційно ініційований католицькою церквою. У пошуку справедливості священик вивчає історію появи на землі демона, що погубив дівчину, і намагається довести в суді факт існування потойбічних сил і їх здатність втручатися в життя людей ...


Тривалість: 02:01:45
Якість: 720p
Відео:
кодек:
розмір кадру: 1280 х 534
бітрейт: 6265 кб/с

Аудіо # 1:
мова: українська
переклад: багатоголосий закадровий
кодек: 5.1
бітрейт: 448 кб/с

Аудіо # 2:
мова: англійська
переклад: оригінал
кодек: 5.1
бітрейт: 640 кб/с

Джерело озвучення:


Субтитри:
мова: українська
тип: програмні (м'які)
формат: *.srt

Субтитри:
мова: англійська
тип: програмні (м'які)
формат: *.srt
720p by braveboy
log

[info]: frame I:1499 Avg QP:11.99 size:120341
[info]: frame P:33878 Avg QP:12.78 size: 59425
[info]: frame B:139778 Avg QP:14.33 size: 25185
[info]: consecutive B-frames: 1.8% 1.4% 4.7% 8.2% 11.6% 61.3% 11.1%
[info]: mb I I16..4: 7.4% 79.2% 13.4%
[info]: mb P I16..4: 2.0% 29.3% 2.2% P16..4: 21.0% 20.8% 18.7% 1.1% 0.5% skip: 4.5%
[info]: mb B I16..4: 0.3% 4.2% 0.3% B16..8: 28.6% 21.4% 9.3% direct: 8.7% skip:27.3% L0:47.6% L1:36.5% BI:15.9%
[info]: 8x8 transform intra:87.2% inter:51.3%
[info]: coded y,uvDC,uvAC intra: 94.3% 96.3% 94.5% inter: 43.9% 49.8% 32.4%
[info]: i16 v,h,dc,p: 33% 7% 14% 46%
[info]: i8 v,h,dc,ddl,ddr,vr,hd,vl,hu: 13% 8% 13% 9% 11% 11% 10% 11% 12%
[info]: i4 v,h,dc,ddl,ddr,vr,hd,vl,hu: 19% 7% 5% 9% 14% 14% 11% 11% 11%
[info]: i8c dc,h,v,p: 66% 12% 11% 12%
[info]: Weighted P-Frames: Y:9.8% UV:5.6%
[info]: ref P L0: 38.1% 5.9% 23.0% 8.8% 9.1% 5.7% 6.0% 3.0% 0.3% 0.0%
[info]: ref B L0: 61.1% 16.8% 9.1% 5.7% 4.2% 2.4% 0.8%
[info]: ref B L1: 90.4% 9.6%
[info]: kb/s:6257.18
MediaInfo
Video
ID : 1
Format : AVC
Format/Info : Advanced Video Codec
Format profile : [email protected]
Format settings, CABAC : Yes
Format settings, ReFrames : 8 frames
Codec ID : V_MPEG4/ISO/AVC
Duration : 2h 1mn
Bit rate : 6 265 Kbps
Width : 1 280 pixels
Height : 534 pixels
Display aspect ratio : 2.40:1
Frame rate mode : Constant
Frame rate : 23.976 fps
Color space : YUV
Chroma subsampling : 4:2:0
Bit depth : 8 bits
Scan type : Progressive
Bits/(Pixel*Frame) : 0.382
Stream size : 5.20 GiB (84%)
Title : The Exorcism of Emily Rose [UNRATED] (2005) by braveboy
Writing library : core 129 r2245 bc13772
Encoding settings : cabac=1 / ref=8 / deblock=1:-3:-3 / analyse=0x3:0x133 / me=umh / subme=9 / psy=1 / psy_rd=0.80:0.00 / mixed_ref=1 / me_range=24 / chroma_me=1 / trellis=1 / 8x8dct=1 / cqm=0 / deadzone=21,11 / fast_pskip=0 / chroma_qp_offset=-2 / threads=6 / lookahead_threads=1 / sliced_threads=0 / nr=0 / decimate=0 / interlaced=0 / bluray_compat=0 / constrained_intra=0 / bframes=6 / b_pyramid=2 / b_adapt=2 / b_bias=0 / direct=1 / weightb=1 / open_gop=0 / weightp=2 / keyint=240 / keyint_min=23 / scenecut=40 / intra_refresh=0 / rc=2pass / mbtree=0 / bitrate=6265 / ratetol=1.0 / qcomp=0.60 / qpmin=10 / qpmax=51 / qpstep=4 / cplxblur=20.0 / qblur=0.5 / ip_ratio=1.40 / pb_ratio=1.30 / aq=1:1.00
Default : Yes
Forced : No

Audio #1
ID : 2
Format : AC-3
Format/Info : Audio Coding 3
Mode extension : CM (complete main)
Format settings, Endianness : Big
Codec ID : A_AC3
Duration : 2h 1mn
Bit rate mode : Constant
Bit rate : 384 Kbps
Channel(s) : 6 channels
Channel positions : Front: L C R, Side: L R, LFE
Sampling rate : 48.0 KHz
Bit depth : 16 bits
Compression mode : Lossy
Stream size : 334 MiB (5%)
Title : 5.1 @ 448 kbps [INTER]
Language : Ukrainian
Default : Yes
Forced : No

Audio #2
ID : 3
Format : AC-3
Format/Info : Audio Coding 3
Mode extension : CM (complete main)
Format settings, Endianness : Big
Codec ID : A_AC3
Duration : 2h 1mn
Bit rate mode : Constant
Bit rate : 640 Kbps
Channel(s) : 6 channels
Channel positions : Front: L C R, Side: L R, LFE
Sampling rate : 48.0 KHz
Bit depth : 16 bits
Compression mode : Lossy
Stream size : 557 MiB (9%)
Title : 5.1 @ 640 kbps
Language : English
Default : No
Forced : No

Text #1
ID : 4
Format : UTF-8
Codec ID : S_TEXT/UTF8
Codec ID/Info : UTF-8 Plain Text
Title : Forced
Language : Ukrainian
Default : No
Forced : No

Text #2
ID : 5
Format : UTF-8
Codec ID : S_TEXT/UTF8
Codec ID/Info : UTF-8 Plain Text
Title : Full
Language : English
Default : No
Forced : No

Menu
00:00:00.000 : en:00:00:00.000
00:08:16.162 : en:00:08:16.162
00:16:20.313 : en:00:16:20.313
00:24:53.158 : en:00:24:53.158
00:35:19.868 : en:00:35:19.868
00:40:52.950 : en:00:40:52.950
00:47:59.502 : en:00:47:59.502
00:55:04.843 : en:00:55:04.843
01:02:27.869 : en:01:02:27.869
01:11:08.890 : en:01:11:08.890
01:20:55.684 : en:01:20:55.684
01:25:22.826 : en:01:25:22.826
01:36:20.024 : en:01:36:20.024
01:43:45.302 : en:01:43:45.302
01:50:38.715 : en:01:50:38.715
01:53:23.672 : en:01:53:23.672
Скріншоти
Особиста оцінка: 0 - не дивився


 Трекер:    Зареєстрований   

Завантажити / скачати фільм українською



відео для новачків



 Зареєстрований:   2013-09-15 08:07
 Розмір:   6.19 GB 
 Оцінка фільму:   9.7/10 (Голосів: 16)
   
waldi-hurtom 
VIP


З нами з: 07.10.12
Востаннє: 03.12.16
Повідомлень: 611

2013-09-24 00:45  
Не любитель жахів, але цей фільм передивився через екзорцизм як практику римокатоликів. 9 балів. Дякую за реліз!
Українською краще було перекласти біси, а не демони. Принаймні, в нашій Євангелії так зазвичай кажуть в подібних значеннях. Демони дещо ширше поняття. В англійській частіше використовують демонів, в російській чортів. Але українською біси були б влучніше.

skuline 
Свій


З нами з: 17.12.11
Востаннє: 03.12.16
Повідомлень: 114

2013-09-24 09:21  
ФІльм вартий перегляду-9 балів. Дякую
eser33 
Новенький


З нами з: 10.08.11
Востаннє: 01.12.16
Повідомлень: 2

2015-08-22 15:54  
Є хтось?)
Ваш часовий пояс: GMT + 2 Години

Нова тема   Відповісти