Завантажити та скачати торренти українською


Залізна людина: Трилогія / Iron Man: Trilogy (2008/2010/2013) 1080р Ukr/Eng | Sub Ukr/Eng

Нові коментарі

Нова тема   Відповісти
Автор Повідомлення
Anonymous 







2013-09-14 13:06  
Залізна людина: Трилогія / Iron Man: Trilogy (2008/2010/2013) 1080р Ukr/Eng | Sub Ukr/Eng

Залізна людина: Трилогія / Iron Man: Trilogy (2008/2010/2013) 1080р Ukr/Eng | Sub Ukr/Eng
Залізна людина / Iron Man (2008) 1080р Ukr/Eng | Sub Ukr/Eng

Залізна людина / Iron Man (2008) 1080р Ukr/Eng | Sub Ukr/Eng



Альтернативний український постер



Жанр: бойовик, пригодницький, фантастика
Країна: США



Кінокомпанія: Paramount Pictures, Marvel Enterprises, Marvel Studios
Режисер: Джон Фавро / Jon Favreau
Композитор: Рамін Джаваді / Ramin Djawadi
Актори: Роберт Дауні-молодший / Robert Downey Jr., Терренс Говард / Terrence Howard, Джеф Бріджес / Jeff Bridges, Гвінет Пелтроу / Gwyneth Paltrow, Леслі Бібб / Leslie Bibb, Шон Тоуб / Shaun Toub, Фаран Таір / Faran Tahir, Кларк Ґреґ / Clark Gregg, Білл Смітровіч / Bill Smitrovich, Саїд Бадрія / Sayed Badreya, Пол Беттані / Paul Bettany, Джон Фавро / Jon Favreau, Семюель Л. Джексон / Samuel L. Jackson та інші

Сюжет:
Мільярдер винахідник Тоні Старк потрапляє у полон до Афганських терористів, які намагаються змусити його створити зброю масового ураження. Під виглядом цієї зброї Старк конструює високотехнологічну кіберброню, яка допомагає йому втекти. Але після повернення в США він дізнається, що в раді директорів його фірми готується змова зі страшними наслідками. Використовуючи свій останній винахід, Старк намагається вирішити проблеми своєї компанії радикально ...
Нагороди, номінації та цікаві факти


Оскар, 2009 рік
Номінації (2):
Кращий монтаж звуку
Кращі візуальні ефекти



Премія каналу MTV, 2009 рік
Номінації (2):
Кращий фільм
Краща чоловіча роль (Роберт Дауні мол.)


Залізна людина: Трилогія / Iron Man: Trilogy (2008/2010/2013) 1080р Ukr/Eng | Sub Ukr/Eng
Британська академія кіно та телевізійного мистецтва, 2009 рік
Номінації (1):
Кращі візуальні ефекти


Сатурн, 2009 рік
Переможець (3):
Кращий актор (Роберт Дауні мл.)
Кращий режисер (Джон Фавро)
Кращий науково-фантастичний фільм


Номінації (5):
Краща актриса (Гвінет Пелтроу)
Кращий актор другого плану (Джефф Бріджес)
Кращий сценарій
Кращі спецефекти
Краща музика


Жорж, 2009 рік (Росія)
Номінації (1):
Кращий високо-бюджетний / видовищний фільм


Премія каналу MTV, 2008 рік
Переможець (1):
Кращий фільм поточного сезону (з числа тих, що вже вийшли у прокат)


Цікаві факти про фільм

• Дизайн костюма «Марк 3» був створений Філом Сандерсом і Аді Грановим (художник коміксів про Залізну Людину). Сам костюм, потім, був сконструйований у Stan Winston Studios.
• Роберт Дауні молодший, після закінчення зйомок фільмів 26 червня 2007 року, був залучений до 8-місячної роботи зі спецефектами, щоб з точністю передати всі рухи Залізної Людини.
• Пепер Потс використовує телефон LG KS20. Тоні Старк - LG VX9400. Джим Роудз - LG KG810.
• Після титрів йде невелика бонусна сцена для найбільш терплячих глядачів. У ній з'являється Семюель Л. Джексон в ролі Ніка Ф'юрі.
• Заключна сутичка нагадує бійку Робокопа і металевого наркоторговця Кейна з фільму «Робокоп-2».
• Це перший фільм, повністю фінансувався Marvel Studios.
• Джон Фавро вирішив знімати фільм у Каліфорнії, тому що, на його думку, занадто багато фільмів про супергероїв було знято на Східному узбережжі, зокрема у Нью-Йорку.
• Ніколас Кейдж і Том Круз були зацікавлені у виконанні ролі Залізної Людини. Зокрема, Том Круз планував спродюсувати фільм і виконати головну роль.
• За вже усталеною традицією, автор коміксу Стен Лі знявся в камео: він грає людину, яку головний герой помилково приймає за Г'ю Гефнера - творця "Плейбоя".
• У фільмі неодноразово лунає музична тема з мультфільму «Залізна Людина» 1966-го (казино, сцена в ліжку і мелодія на мобільнику Роудса).
• Прототипом Тоні Старка є винахідник Говард Гьюз.
• Під час зйомки сцени з танком кінематографісти розбили камеру.
• У сцені, де Пепер в майстерні бачить Старка який знімає броню, можна помітити частково зібраний щит Капітана Америка.
• У ранній версії сценарію з'ясовувалося, що Тоні Старк є творцем щупалець доктора Отто «Восьминога» Октавіус з «Людини-Павука 2» (2004).
• Пол Беттані озвучив всі репліки Джарвіса за 2 години.
• Спочатку, головним лиходієм мав стати Мандарин, однак Джон Фавро порахував його дуже фантастичним і застарілим. Якби Мандарин і з'явився у фільмі, то в якості індонезійського терориста.
• На роль Тоні Старка розглядалися кандидатури Клайва Оуена і Сема Роквелла.
• За цим фільмом була зроблена однойменна гра.
• Гвінет Пелтроу погодилася на роль Вірджинії Пепер Поттс за умови, що зйомки з її участю проходитимуть недалеко від будинку. У підсумку на майданчик Пелтров приїжджала за 15 хвилин.
• Бюджет - $140,000,000.
• Касові збори - $581,691,828
рейтинг MPAA: PG-13 - дітям до 13 років перегляд не бажаний
Вікова категорія: 12+

Тривалість: 02:06:01
Якість: 1080p
Відео:
кодек:
розмір кадру: 1920х800
бітрейт: 7751 кб/с

Аудіо # 1:
мова: українська - Postmodern | Ліцензія R5
переклад: професійний дубльований
кодек: 5.1
бітрейт: 448 кб/с
Інформація про дубляж
Дубльовано студією Postmodern
Переклад: Олександра Чайки
Літературний редактор: Ольга Чернілевська
Режисер дубляжу: Ольга Фокіна
Звукорежисер: Віктор Алфьоров
Менеджер проекту: Ірина Туловська
Ролі дублювали: Олег Лепенець (Роберт Дауні мол. / Тоні Старк / Залізна людина), Ірина Ткаленко (Гвінет Пелтроу / Пепер), Олександр Ігнатуша (Джефф Бріджес / Обадія Стейн / Айрон Мангер), Юлія Перенчук (Леслі Бібб / Крістін Евенхарт), Юрій Гребельник (Шон Тоуб / доктор Їнсен), Володимир Голосняк, Андрій Самінін (Кларк Ґреґ / Агент Коулсон), Дмитро Гаврилов та інші.
Аудіо # 2:
мова: англійська
переклад: оригінал
кодек: 5.1
бітрейт: 640 кб/с

Субтитри # 1/2:
мова: українська (форсовані/повні)
тип: програмні (м'які)
формат: *.srt

Субтитри # 3/4:
мова: англійська (форсовані/повні)
тип: програмні (м'які)
формат: *.srt

Збережено оригінальні розділи, як на Blu-ray.
MediaInfo
General
Unique ID : 195764510604961500920181306314363943588 (0x9346DF90BC53BC97B3D1C8AA8012BAA4)
Complete name : Iron Man (2008) [Ukr,Eng;sub.Ukr,Eng] 1080p [Hurtom].mkv
Format : Matroska
Format version : Version 4 / Version 2
File size : 7.77 GiB
Duration : 2h 6mn
Overall bit rate : 8 830 Kbps
Movie name : Залізна людина / Iron Man / Железный человек (2008) 1080p [Hurtom]
Encoded date : UTC 2013-08-23 14:10:08
Writing application : mkvmerge v6.3.0 ('You can't stop me!') built on Jun 28 2013 20:09:41
Writing library : libebml v1.3.0 + libmatroska v1.4.0

Video
ID : 1
Format : AVC
Format/Info : Advanced Video Codec
Format profile : [email protected]
Format settings, CABAC : Yes
Format settings, ReFrames : 5 frames
Codec ID : V_MPEG4/ISO/AVC
Duration : 2h 6mn
Bit rate : 7 751 Kbps
Width : 1 920 pixels
Height : 800 pixels
Display aspect ratio : 2.40:1
Frame rate mode : Constant
Frame rate : 23.976 fps
Color space : YUV
Chroma subsampling : 4:2:0
Bit depth : 8 bits
Scan type : Progressive
Bits/(Pixel*Frame) : 0.210
Stream size : 6.66 GiB (86%)
Title : Залізна людина / Iron Man / Железный человек (2008) 1080p [NoLimits-Team-envy]
Writing library : core 135 r2345 f0c1c53
Encoding settings : cabac=1 / ref=5 / deblock=1:0:0 / analyse=0x3:0x133 / me=umh / subme=11 / psy=1 / psy_rd=1.00:0.00 / mixed_ref=1 / me_range=64 / chroma_me=1 / trellis=2 / 8x8dct=1 / cqm=0 / deadzone=21,11 / fast_pskip=0 / chroma_qp_offset=-2 / threads=12 / lookahead_threads=2 / sliced_threads=0 / nr=0 / decimate=1 / interlaced=0 / bluray_compat=0 / constrained_intra=0 / bframes=9 / b_pyramid=2 / b_adapt=2 / b_bias=0 / direct=3 / weightb=1 / open_gop=0 / weightp=2 / keyint=240 / keyint_min=23 / scenecut=40 / intra_refresh=0 / rc=2pass / mbtree=0 / bitrate=7751 / ratetol=2.0 / qcomp=0.60 / qpmin=0 / qpmax=69 / qpstep=4 / cplxblur=20.0 / qblur=0.5 / ip_ratio=1.40 / pb_ratio=1.30 / aq=1:1.00
Language : English
Default : Yes
Forced : No

Audio #1
ID : 2
Format : AC-3
Format/Info : Audio Coding 3
Mode extension : CM (complete main)
Format settings, Endianness : Big
Codec ID : A_AC3
Duration : 2h 6mn
Bit rate mode : Constant
Bit rate : 448 Kbps
Channel(s) : 6 channels
Channel positions : Front: L C R, Side: L R, LFE
Sampling rate : 48.0 KHz
Bit depth : 16 bits
Compression mode : Lossy
Stream size : 404 MiB (5%)
Title : Dub [DVD-R5-Postmodern] 5.1 448 kbps
Language : Ukrainian
Default : Yes
Forced : No

Audio #2
ID : 3
Format : AC-3
Format/Info : Audio Coding 3
Mode extension : CM (complete main)
Format settings, Endianness : Big
Codec ID : A_AC3
Duration : 2h 6mn
Bit rate mode : Constant
Bit rate : 640 Kbps
Channel(s) : 6 channels
Channel positions : Front: L C R, Side: L R, LFE
Sampling rate : 48.0 KHz
Bit depth : 16 bits
Compression mode : Lossy
Stream size : 577 MiB (7%)
Title : Original
Language : English
Default : No
Forced : No

Text #1
ID : 4
Format : UTF-8
Codec ID : S_TEXT/UTF8
Codec ID/Info : UTF-8 Plain Text
Title : Ukr forced
Language : Ukrainian
Default : Yes
Forced : Yes

Text #2
ID : 5
Format : UTF-8
Codec ID : S_TEXT/UTF8
Codec ID/Info : UTF-8 Plain Text
Title : Ukr full
Language : Ukrainian
Default : No
Forced : No

Text #3
ID : 6
Format : UTF-8
Codec ID : S_TEXT/UTF8
Codec ID/Info : UTF-8 Plain Text
Title : Eng forced
Language : English
Default : No
Forced : No

Text #4
ID : 7
Format : UTF-8
Codec ID : S_TEXT/UTF8
Codec ID/Info : UTF-8 Plain Text
Title : Eng full
Language : English
Default : No
Forced : No

Menu
00:00:00.000 : :Chapter 01
00:09:06.170 : :Chapter 02
00:18:00.579 : :Chapter 03
00:26:49.940 : :Chapter 04
00:35:01.849 : :Chapter 05
00:43:15.259 : :Chapter 06
00:52:38.488 : :Chapter 07
00:59:24.644 : :Chapter 08
01:07:32.423 : :Chapter 09
01:11:44.300 : :Chapter 10
01:18:31.206 : :Chapter 11
01:24:40.575 : :Chapter 12
01:35:00.111 : :Chapter 13
01:44:29.345 : :Chapter 14
01:53:31.470 : :Chapter 15
Залізна людина 2 / Iron Man 2 (2010) 1080р Ukr/Eng | Sub Ukr/Eng

Залізна людина 2 / Iron Man 2 (2010) 1080р Ukr/Eng | Sub Ukr/Eng



Альтернативний український постер



Жанр: бойовик, пригодницький, фантастика
Країна: США



Кінокомпанія: Paramount Pictures, Marvel Entertainment, Marvel Studios
Режисер: Джон Фавро / Jon Favreau
Композитор: Джон Дебні / John Debney
Актори: Роберт Дауні-молодший / Robert Downey Jr., Гвінет Пелтроу / Gwyneth Paltrow, Дон Чідл / Don Cheadle, Скарлет Йохансон / Scarlett Johansson, Сем Роквелл / Sam Rockwell, Міккі Рурк / Mickey Rourke, Семюель Л. Джексон / Samuel L. Jackson, Кларк Ґреґ / Clark Gregg, Джон Слеттері / John Slattery, Ґаррі Шендлінг / Garry Shandling, Пол Беттані / Paul Bettany, Джон Фавро / Jon Favreau, Кейт Мара / Kate Mara, Леслі Бібб / Leslie Bibb та інші.

Сюжет:
Минуло півроку відтоді, як світ дізнався, що мільярдер-винахідник Тоні Старк є володарем унікальної кібер-броні Залізної людини. Громадськість вимагає, щоб Старк передав технологію броні уряду США, але Тоні не хоче розголошувати її секрети, тому що боїться, що вона потрапить не в ті руки.
Тим часом Іван Ванко - син російського вченого, що колись працював на фірму Старка, але потім звільненого і позбавленого всього, має намір помститися Тоні за біди своєї сім'ї. Для цього Іван створює свою високотехнологічну зброю ...
Номінації та цікаві факти


Оскар, 2011 рік
Номінації (1):
Кращі візуальні ефекти


Премія каналу MTV, 2011 рік
Номінації (2):
Кращий лиходій (Міккі Рурк)
"Найкрутіша" зірка (Роберт Дауні мол.)



Сатурн, 2011 рік
Номінації (3):
Кращий актор (Роберт Дауні мол.)
Краща актриса другого плану (Скарлет Йоганссон)
Кращий науково-фантастичний фільм


Жорж, 2011 рік (Росія)
Номінації (1):
Кращий закордонний екшн


Цікаві факти про фільм

• Аль Пачіно розглядався на роль Джастіна Гаммера.
• Фенн Вонґ і Чжан Цзиі розглядалися на роль Руміко Фуджікави.
• Емілі Блант повинна була зіграти Чорну Вдову, але їй довелося відмовитися від ролі через зайнятість у фільмі «Мандри Ґулівера» (2010).
• Геннадій Тартаковський зробив розкадровки до екшн-сцен фільму.
• Міккі Рурк порадив, щоб його персонаж частково говорив російською.
• Роберт Дауні-мол. порекомендував Джастіна Теру Джону Фавро в якості сценариста фільму.
• Перший сиквел, спродюсований студією Marvel Studios.
• Перший сиквел Джона Фавро і як режисера, і як актора.
• Дон Чідл замінив Терренса Говарда в ролі Роуді, після погіршення відносин між Терренсом і студією Marvel Studios.
• Міккі Рурк, як він зображений у фільмі, - поєднання двох лиходіїв Залізної людини що володіє спеціальним батогом, і Крімсон Динамо, що носить броню, контролюючу електрику.
• Семюел Л. Джексон, з'явившись у першому фільмі в ролі Ніка Ф'юрі, перед початком зйомок другої частини уклав унікальну угоду з Marvel Studio, згідно з умовами якої він з'явиться в дев'яти фільмах в образі Ніка.
• Скарлетт Йоханссон настільки сильно хотіла отримати роль Чорної Вдови, що пофарбувала волосся в рудий колір, ще до того як її затвердили на роль.
• За словами Дона Чідла, він намагався зіграти Роуді по-своєму, проте, зрештою, більшу частину образу він скопіював у Терренса Говарда.
• Для ролі Чорної Вдови Скарлетт Йоханссон посилено тренувалася шість тижнів до початку зйомок і продовжувала тренування упродовж шестимісячного знімального періоду.
• Сем Роквелл, який зіграв Джастін Гаммера, розглядався на роль Тоні Старка в першій частині.
• У коміксі Джастін Гаммер - літня людина, проте для фільму його спеціально «омолодили», щоб він краще підходив на роль суперника Тоні Старка.
• Дизайн батогів Ванко був запозичений зі світлових мечів джедаїв із «Зоряних воєн».
• На роль Чорної Вдови продюсери розглядали Емілі Блант, Джесіку Біл, Джессіку Альбу, Наталі Портман і Анджеліну Джолі.
• Йоханссон надихалася грою Ґрети Ґарбо в «Ніночка» (1939) і Барбари Бах в «Шпигун, який мене полюбив».
• У фільмі показано атрибут іншого героя Marvel Comics - щит героя Капітан Америка.
• У ящику з речами батька Тоні Старка, отриманому від Ніка Ф'юрі, можна помітити справжній післявоєнний випуск коміксу «Капітан Америка».
• Як і в першій частині, Тоні Старк приймає за когось іншого Стена Лі. У цій частині він прийняв його за Ларрі Кінґа.
• Після фінальних титрів можна помітити атрибут іншого персонажа всесвіту Marvel - молот Тора.
• Саундтрек до першої частини фільму був в основному написаний німцем іранського походження Раміном Джаваді. У продовженні ж Фавро повністю змінив підхід до звукової доріжки. Цього разу туди увійшли пісні легендарних австралійців AC / DC, зокрема композиції Shoot to thrill, Back in Black, TNT, Highway to Hell і Thunderstruck.
• Рурк дуже хотів олюднити свого лиходія, щоб він не був однобоким, тому режисер Джон Фавро «дозволив» Ванко завести в тюремній камері папугу какаду.
• В одній зі сцен можна помітити досьє на Тоні Старка, з якого можна дізнатись, що він народився 29 травня 1970 року, знає англійську, іспанську, італійську та афгансько-перську мову Дарі, закінчив Академію Філліпса та Массачусетський технологічний інститут.
• Бюджет - $200,000,000.
• Збори - $622,057,085.
рейтинг MPAA: PG-13 - дітям до 13 років перегляд не бажаний
Вікова категорія: 12+

Тривалість: 02:04:38
Якість: 1080p
Відео:
кодек:
розмір кадру: 1920х816
бітрейт: 7851 кб/с

Аудіо # 1:
мова: українська - Postmodern | Ліцензія R5
переклад: професійний дубльований
кодек: 5.1
бітрейт: 448 кб/с
Інформація про дубляж
Дубльовано студією Postmodern на замовлення B&H Film Distribution
Режисер дубляжу: Ольга Фокіна
Переклад і укладка тексту: Олександр Чайка
Звукорежисер: Олександр Козярук
Менеджер проекту: Ірина Туловська
Ролі дублювали: Олег Лепенець (Роберт Дауні мол. / Тоні Старк / Залізна людина), Ірина Ткаленко (Гвінет Пелтроу / Пепер), Олесь Гімбаржевський (Сем Роквелл / Джастін Хамер), Дмитро Вікулов (Дон Чідл / підполковник Джеймс "Роуді" Роудс), Микола Боклан (Мікі Рурк / Іван Ванко), Наталя-Романько Кисельова (Скарлет Йоханссон / Наташа Романова / Чорна Вдова), Олександр Шевчук (Семюель Л. Джексон / Нік Ф'юрі), Євген Пашин (Джон Фавро / Хепі Хоґан), Олександр Печериця (Пол Бетані / Джарвіс), Юрій Висоцький (Гарі Шендлінг / Сенатор Стерн), Андрій Самінін (Кларк Ґреґ / Агент Коулсон), Юлія Перенчук (Леслі Бібб / Крістін Евенхарт) та інші
Аудіо # 2:
мова: англійська
переклад: оригінал
кодек: 5.1
бітрейт: 640 кб/с

Субтитри # 1/2:
мова: українська (форсовані/повні)
тип: програмні (м'які)
формат: *.srt

Субтитри # 3/4:
мова: англійська (форсовані/повні)
тип: програмні (м'які)
формат: *.srt

Збережено оригінальні розділи, як на Blu-ray.
MediaInfo
General
Unique ID : 200237751428253545999008865718440044417 (0x96A4635D9E27A90DA575D443D5282781)
Complete name : Iron Man 2 (2010) [Ukr,Eng;sub.Ukr,Eng] 1080p [Hurtom].mkv
Format : Matroska
Format version : Version 4 / Version 2
File size : 7.78 GiB
Duration : 2h 4mn
Overall bit rate : 8 930 Kbps
Movie name : Залізна людина 2 / Iron Man 2 / Железный человек 2 (2010) 1080p [Hurtom]
Encoded date : UTC 2013-08-23 14:52:40
Writing application : mkvmerge v6.3.0 ('You can't stop me!') built on Jun 28 2013 20:09:41
Writing library : libebml v1.3.0 + libmatroska v1.4.0

Video
ID : 1
Format : AVC
Format/Info : Advanced Video Codec
Format profile : [email protected]
Format settings, CABAC : Yes
Format settings, ReFrames : 5 frames
Codec ID : V_MPEG4/ISO/AVC
Duration : 2h 4mn
Bit rate : 7 851 Kbps
Width : 1 920 pixels
Height : 816 pixels
Display aspect ratio : 2.35:1
Frame rate mode : Constant
Frame rate : 23.976 fps
Color space : YUV
Chroma subsampling : 4:2:0
Bit depth : 8 bits
Scan type : Progressive
Bits/(Pixel*Frame) : 0.209
Stream size : 6.67 GiB (86%)
Title : Залізна людина 2 / Iron Man 2 / Железный человек 2 (2010) 1080p [NoLimits-Team-envy]
Writing library : core 135 r2345 f0c1c53
Encoding settings : cabac=1 / ref=5 / deblock=1:-3:-3 / analyse=0x3:0x133 / me=umh / subme=11 / psy=1 / psy_rd=1.00:0.00 / mixed_ref=1 / me_range=64 / chroma_me=1 / trellis=2 / 8x8dct=1 / cqm=0 / deadzone=21,11 / fast_pskip=0 / chroma_qp_offset=-2 / threads=12 / lookahead_threads=2 / sliced_threads=0 / nr=0 / decimate=1 / interlaced=0 / bluray_compat=0 / constrained_intra=0 / bframes=9 / b_pyramid=2 / b_adapt=2 / b_bias=0 / direct=3 / weightb=1 / open_gop=0 / weightp=2 / keyint=240 / keyint_min=23 / scenecut=40 / intra_refresh=0 / rc=2pass / mbtree=0 / bitrate=7851 / ratetol=2.0 / qcomp=0.60 / qpmin=0 / qpmax=69 / qpstep=4 / cplxblur=20.0 / qblur=0.5 / ip_ratio=1.40 / pb_ratio=1.30 / aq=1:1.00
Language : English
Default : Yes
Forced : No

Audio #1
ID : 2
Format : AC-3
Format/Info : Audio Coding 3
Mode extension : CM (complete main)
Format settings, Endianness : Big
Codec ID : A_AC3
Duration : 2h 4mn
Bit rate mode : Constant
Bit rate : 448 Kbps
Channel(s) : 6 channels
Channel positions : Front: L C R, Side: L R, LFE
Sampling rate : 48.0 KHz
Bit depth : 16 bits
Compression mode : Lossy
Stream size : 399 MiB (5%)
Title : Dub [DVD-R5-Postmodern] 5.1 448 kbps
Language : Ukrainian
Default : Yes
Forced : No

Audio #2
ID : 3
Format : AC-3
Format/Info : Audio Coding 3
Mode extension : CM (complete main)
Format settings, Endianness : Big
Codec ID : A_AC3
Duration : 2h 4mn
Bit rate mode : Constant
Bit rate : 640 Kbps
Channel(s) : 6 channels
Channel positions : Front: L C R, Side: L R, LFE
Sampling rate : 48.0 KHz
Bit depth : 16 bits
Compression mode : Lossy
Stream size : 571 MiB (7%)
Title : Original
Language : English
Default : No
Forced : No

Text #1
ID : 4
Format : UTF-8
Codec ID : S_TEXT/UTF8
Codec ID/Info : UTF-8 Plain Text
Title : Ukr forced
Language : Ukrainian
Default : Yes
Forced : Yes

Text #2
ID : 5
Format : UTF-8
Codec ID : S_TEXT/UTF8
Codec ID/Info : UTF-8 Plain Text
Title : Ukr full
Language : Ukrainian
Default : No
Forced : No

Text #3
ID : 6
Format : UTF-8
Codec ID : S_TEXT/UTF8
Codec ID/Info : UTF-8 Plain Text
Title : Eng forced
Language : English
Default : No
Forced : No

Text #4
ID : 7
Format : UTF-8
Codec ID : S_TEXT/UTF8
Codec ID/Info : UTF-8 Plain Text
Title : Eng full
Language : English
Default : No
Forced : No

Menu
00:00:00.000 : :Chapter 01
00:05:04.303 : :Chapter 02
00:11:07.583 : :Chapter 03
00:17:59.953 : :Chapter 04
00:25:53.009 : :Chapter 05
00:30:26.783 : :Chapter 06
00:37:33.000 : :Chapter 07
00:43:59.636 : :Chapter 08
00:51:39.346 : :Chapter 09
01:00:10.523 : :Chapter 10
01:07:01.517 : :Chapter 11
01:16:00.764 : :Chapter 12
01:21:13.283 : :Chapter 13
01:30:33.552 : :Chapter 14
01:38:49.339 : :Chapter 15
01:45:41.793 : :Chapter 16
01:54:17.350 : :Chapter 17
Залізна людина 3 / Iron Man 3 (2013) 1080р Ukr/Eng | Sub Ukr/Eng

Залізна людина 3 / Iron Man 3 (2013) 1080р Ukr/Eng | Sub Ukr/Eng



Альтернативні українські постери











Жанр: бойовик, пригодницький, фантастика
Країна: США, Китай



Кінокомпанія: Marvel Studios, Paramount Pictures, DMG Entertainment, Walt Disney Studios Motion Pictures
Режисер: Шейн Блек / Shane Black
Композитор: Брайан Тайлер / Brian Tyler
Актори: Роберт Дауні-молодший / Robert Downey Jr., Гвінет Пелтроу / Gwyneth Paltrow, Дон Чідл / Don Cheadle, Ґай Пірс / Guy Pearce, Бен Кінґслі / Ben Kingsley, Ребекка Голл / Rebecca Hall, Пол Беттані / Paul Bettany, Стен Лі та інші

Сюжет:
Коли світ Тоні Старка руйнується на його очах з вини невідомих ворогів, герой жадає знайти винних і звести з ними рахунки. Опинившись у безвихідній ситуації, Старк може розраховувати тільки на себе і свою винахідливість, щоб захистити тих, хто йому дорогий. Це стає справжнім випробуванням для героя, якому доведеться не тільки битися з підступним ворогом, але і розібратися в собі, щоб знайти відповідь на питання, яке давно його турбує: що важливіше - людина чи костюм?
Цікаві факти

• Декорації знаменитого особняка Старка були відбудовані за 16 тижнів у Вілмінгтоні, Нова Кароліна. Вся конструкція була побудована на шарнірної платформі, що дозволяє нахиляти будівлю під кутом 45 градусів , що розширило можливості для зйомок сцени атаки на будинок.
• Руйнування особняка Старка знімалося у водяному баку на студії EUE / Screen Gems Studios.
• Спочатку Marvel Studios і Walt Disney Pictures збиралися знімати цей фільм у Мічигані через податкові пільги. Після того як Північна Кароліна гарантувала податкову знижку в 20 мільйонів доларів, продюсери вирішили проводити зйомки там замість Мічигану.
• Залізна Людина створена Стеном Лі, Ларрі Лібіром, Доном Хеком і Джеком Кірбі в 1963 році в коміксі Tales of Suspense, # 39.
• Джемма Артертон, Дайан Крюгер та Айла Фішер розглядалися на роль, яку в підсумку отримала Джессіка Честейн. Однак через конфлікт у графіку Честейн згодом довелося відмовитися від зйомок у картині. Її замінила Ребекка Холл.
• Джуд Лоу розглядався на роль Олдріча Кілліана.
• Студія Disney придбала у Paramount права на розповсюдження за 115 мільйонів доларів. Також в цю угоду потрапив і фільм "Месники" (2012). Однак , як і з "Месниками", однією з умов оборудки було те, що студія Disney буде згадуватися тільки у фінальних титрах як дистриб'ютор Walt Disney Studios Motion Pictures.
• Якщо вважати сцену перед титрами у фільмі "Неймовірний Халк" (2008), то це п'ятий раз, коли Роберт Дауні мол. грає роль Тоні Старка / Залізної Людини.
• Це перший фільм серії, чиїм режисером не став Джон Фавро, який також відмовився займатися фільмами "Чарівне королівство" і "Хлопці з Джерсі". Він зізнався, що отримав навіть більше задоволення від гри ролі Хогана в третій частині "Залізної людини", не займаючись при цьому режисурою фільму. Як він висловився, він був як "гордий дідусь, який може грати з дитиною, але при цьому йому не доведеться міняти підгузки".
• Одну зі сцен було знято в приміщенні компанії Epic Games. Цей розробник відеоігор відомий своєю франшизою Gears of War.
• У коміксах псевдонім Залізний Патріот належав супротивникові Людини-павука, Зеленому Гобліну. У цьому фільмі це новий набір броні Залізної Людини, на яку нанесено забарвлення Капітана Америка. Продюсер Кевін Файг сказав: "Це "Месники" врятували всіх, а не уряд, який відчуває, що йому потрібен свій власний герой. Це дало нам більший простір, щоб попрацювати над персонажем Роуді, показати, як він розривається між лояльністю до свого друга і своїми посадовими обов'язками".
• Робота над фільмом була припинена 15 серпня 2012, коли Роберт Дауні мол. пошкодив кісточку під час виконання трюку.
Шейн Блек описав фільм як "трилер Тома Кленсі" з акцентом на реальних лиходіях, а не на "двох чоловіках в залізних костюмах , які борються один з одним".
Кевін Файг описав цей фільм так : "Фільм повністю сконцентрований на Тоні Старка. Його позбавили всього, і йому доведеться використовувати свій інтелект, щоб знайти вихід з цього становища. Він не може покликати Тора, Капітана Америка чи Ніка Ф'юрі". Роберт Дауні мол. описав свого персонажа як що знаходиться під впливом світу після подій фільму "Месники" (2012).
• Енді Лау пропонували роль Радіоактивною Людини, але він відмовився у зв'язку з народженням своєї першої дитини. Потім Чень Даомін і Ву Сюбовере (Wu Xiubowere) розглядалися на цю роль, але в результаті вона дісталася Сюеці Вану.
• Роберт Дауні мол. раніше знімався у фільмі Шейна Блека "Поцілунок навиліт" (2005) і позитивно відгукувався про те, що він прийшов на зміну Джону Фавро, сказавши, що "залучення в проект Блека на роль сценариста і режисера було єдиним можливим варіантом, на який Фавро, студія Marvel і я могли підписатися".
• Це перший раз, коли Семюель Л. Джексон не з'явиться у фільмі про Залізну Людину як Нік Ф'юрі.
• Фільм знятий почасти за коміксами серії Extremis Уоррена Елліса і Sentient Armor Джо Куесада, а також за оригінальною історією про противника Залізної Людини, Мандарина.
• На відміну від перших двох фільмів серії, у цьому компанія Industrial Light and Magic вже не працювала над відеоефектами. Замість неї цим займалися Digital Domain і Weta Digital.
• За словами Кевіна Файга, персонаж Мандарина був створений за образом полковника Курца з фільму "Апокаліпсис сьогодні" (1979). "Він представляє такий вид терористів, які працювали на розвідувальне відомство і божеволіли, стаючи одержимими військовими тактиками".
• A. I. M. ( "Передові ідеї механіки") - це наукова організація, очолювана Олдрічем Кілліаном. У коміксах це була простіша організація злих вчених-терористів.
• Зйомки фільму почались 25 травня 2012 у Вілмінгтоні, Північна Кароліна. Павільйонні зйомки пройшли на студії Sony Screen Gems Studios. Серед інших знімальних локацій : Роулі, Північна Кароліна і Майамі, Флорида.
• Художник з реквізиту Рассел Боббіт, який вже працював над попередніми частинами франшизи "Залізна людина", знову приєднався до проекту. Його улюблений реквізит - 10 кілець Мандарина. Він багато спілкувався з ювелірними майстернями, і в результаті вдалося розробити 10 унікальних кілець з різними каменями, виконаних за індивідуальними малюнками. Весь процес створення прикрас зайняв кілька місяців.
• Поп-арт художник Баск з Флориди був найнятий спеціально для створення картин з офісу і спальні Мандарина. Картини повинні були відображати сутність лиходія. Незважаючи на те, що Баск працює в жанрі поп-арт, його роботи для фільму були натхненні коміксами, графіті і панк-рок естетикою.
• У фільмі є сцена, де 13 осіб випадають з літака і Залізна людина намагається врятувати їх усіх, незважаючи на те, що костюм дозволяє утримати лише чотирьох. За участю професійної команди скайдайверів Red Bull, найретельнішим чином сплановані та вивірені до секунди стрибки здійснювалися протягом 10 днів, всього ж у зйомках сцени взяли участь 630 парашутистів.
рейтинг MPAA: PG-13 - дітям до 13 років перегляд не бажаний
Вікова категорія: 12+

Тривалість: 02:10:32
Якість: 1080p
Відео:
кодек:
розмір кадру: 1920х800
бітрейт: 7440 кб/с

Аудіо # 1:
мова: українська - LeDoyen Studio | Ліцензія R5
переклад: професійний дубльований
кодек: 5.1
бітрейт: 384 кб/с
Інформація про дубляж
Дубльовано студією LeDoyen на замовлення Disney Character Voices International, Inc. Зміксовано студією Shepperton International.

Переклад: Сергій Ковальчук
Режисер дубляжу: Ольга Фокіна
Творчий консультант: Maciej Eyman
Ролі дублювали: Олег Лепенець, Ірина Ткаленко, Роман Семисал, Дмитро Вікулов, Катерина Качан, Юрій Висоцький, Олександр Печериця, Максим Чумак, Євген Пашин, Дмитро Чернов, Роман Чорний, Володимир Кокотунов, Лариса Руснак, Юлія Перенчук, Вікторія Хмельницька, Ігор Щербак, Олег Хілінський, Сергій Солопай, Кирило Нікітенко, Катерина Башкіна-Злешко, Анна Суздаль-Сагайдачна, Марія Єременко, В'ячеслав Дудко, Юрій Сосков, Григорій Герман та інші.
Аудіо # 2:
мова: англійська
переклад: оригінал
кодек: 5.1
бітрейт: 640 кб/с

Субтитри # 1/2:
мова: українська (форсовані/повні)
тип: програмні (м'які)
формат: *.srt

Субтитри # 3/4/5/6:
мова: англійська (повні/повні з піснями/SDH/SDH кольорові)
тип: програмні (м'які)
формат: *.srt

Збережено оригінальні розділи, як на Blu-ray.
MediaInfo
General
Unique ID : 206699794922511160224409908244661616883 (0x9B80EEB54E1BFB27A48D27A67C0F40F3)
Complete name : Iron Man 3 (2013) [Ukr,Eng;sub.Ukr.Eng] 1080p [Hurtom].mkv
Format : Matroska
Format version : Version 4 / Version 2
File size : 7.72 GiB
Duration : 2h 10mn
Overall bit rate : 8 465 Kbps
Movie name : Залізна людина 3 / Iron Man 3 / Железный человек 3 (2013) 1080p [Hurtom]
Encoded date : UTC 2013-09-13 09:35:55
Writing application : mkvmerge v6.3.0 ('You can't stop me!') built on Jun 28 2013 20:09:41
Writing library : libebml v1.3.0 + libmatroska v1.4.0

Video
ID : 1
Format : AVC
Format/Info : Advanced Video Codec
Format profile : [email protected]
Format settings, CABAC : Yes
Format settings, ReFrames : 5 frames
Codec ID : V_MPEG4/ISO/AVC
Duration : 2h 10mn
Bit rate : 7 440 Kbps
Width : 1 920 pixels
Height : 800 pixels
Display aspect ratio : 2.40:1
Frame rate mode : Constant
Frame rate : 23.976 fps
Color space : YUV
Chroma subsampling : 4:2:0
Bit depth : 8 bits
Scan type : Progressive
Bits/(Pixel*Frame) : 0.202
Stream size : 6.63 GiB (86%)
Title : Залізна людина 3 / Iron Man 3 / Железный человек 3 (2013) 1080p [NoLimits-Team-envy]
Writing library : core 135 r2345 f0c1c53
Encoding settings : cabac=1 / ref=5 / deblock=1:-3:-3 / analyse=0x3:0x133 / me=umh / subme=11 / psy=1 / psy_rd=1.00:0.00 / mixed_ref=1 / me_range=64 / chroma_me=1 / trellis=2 / 8x8dct=1 / cqm=0 / deadzone=21,11 / fast_pskip=0 / chroma_qp_offset=-2 / threads=12 / lookahead_threads=1 / sliced_threads=0 / nr=0 / decimate=1 / interlaced=0 / bluray_compat=0 / constrained_intra=0 / bframes=6 / b_pyramid=2 / b_adapt=2 / b_bias=0 / direct=3 / weightb=1 / open_gop=0 / weightp=2 / keyint=240 / keyint_min=23 / scenecut=40 / intra_refresh=0 / rc=2pass / mbtree=0 / bitrate=7440 / ratetol=2.0 / qcomp=0.60 / qpmin=0 / qpmax=69 / qpstep=4 / cplxblur=20.0 / qblur=0.5 / ip_ratio=1.40 / pb_ratio=1.30 / aq=1:0.80
Language : English
Default : Yes
Forced : No

Audio #1
ID : 2
Format : AC-3
Format/Info : Audio Coding 3
Mode extension : CM (complete main)
Format settings, Endianness : Big
Codec ID : A_AC3
Duration : 2h 10mn
Bit rate mode : Constant
Bit rate : 384 Kbps
Channel(s) : 6 channels
Channel positions : Front: L C R, Side: L R, LFE
Sampling rate : 48.0 KHz
Bit depth : 16 bits
Compression mode : Lossy
Stream size : 359 MiB (5%)
Title : Dub [DVD R5-LeDoyen] 5.1 384 kbps [Hurtom]
Language : Ukrainian
Default : Yes
Forced : No

Audio #2
ID : 3
Format : AC-3
Format/Info : Audio Coding 3
Mode extension : CM (complete main)
Format settings, Endianness : Big
Codec ID : A_AC3
Duration : 2h 10mn
Bit rate mode : Constant
Bit rate : 640 Kbps
Channel(s) : 6 channels
Channel positions : Front: L C R, Side: L R, LFE
Sampling rate : 48.0 KHz
Bit depth : 16 bits
Compression mode : Lossy
Stream size : 598 MiB (8%)
Title : Original
Language : English
Default : No
Forced : No

Text #1
ID : 4
Format : UTF-8
Codec ID : S_TEXT/UTF8
Codec ID/Info : UTF-8 Plain Text
Title : Ukr forced
Language : Ukrainian
Default : Yes
Forced : Yes

Text #2
ID : 5
Format : UTF-8
Codec ID : S_TEXT/UTF8
Codec ID/Info : UTF-8 Plain Text
Title : Ukr full
Language : Ukrainian
Default : No
Forced : No

Text #3
ID : 6
Format : UTF-8
Codec ID : S_TEXT/UTF8
Codec ID/Info : UTF-8 Plain Text
Title : Eng full
Language : English
Default : No
Forced : No

Text #4
ID : 7
Format : UTF-8
Codec ID : S_TEXT/UTF8
Codec ID/Info : UTF-8 Plain Text
Title : Eng full + Songs
Language : English
Default : No
Forced : No

Text #5
ID : 8
Format : UTF-8
Codec ID : S_TEXT/UTF8
Codec ID/Info : UTF-8 Plain Text
Title : Eng SDH
Language : English
Default : No
Forced : No

Text #6
ID : 9
Format : UTF-8
Codec ID : S_TEXT/UTF8
Codec ID/Info : UTF-8 Plain Text
Title : Eng SDH Color
Language : English
Default : No
Forced : No

Menu
00:00:00.000 : :Chapter 01
00:04:52.750 : :Chapter 02
00:07:55.433 : :Chapter 03
00:12:12.440 : :Chapter 04
00:19:04.101 : :Chapter 05
00:23:47.884 : :Chapter 06
00:29:47.702 : :Chapter 07
00:39:46.384 : :Chapter 08
00:45:56.044 : :Chapter 09
00:59:19.639 : :Chapter 10
01:01:56.921 : :Chapter 11
01:09:24.451 : :Chapter 12
01:18:41.508 : :Chapter 13
01:23:52.944 : :Chapter 14
01:37:55.995 : :Chapter 15
01:56:18.304 : :Chapter 16
01:59:38.754 : :Chapter 17
Джерело: &

Особиста оцінка: 8 - мені сподобалося

ЗАЛИШАЙТЕСЬ ЯКОМОГА ДОВШЕ НА РОЗДАЧІ!

СКАЧАВ САМ - ДАЙ СКАЧАТИ ІНШИМ


Бронзовий реліз (на рейтинг впливає 75% завантаженого)
 Трекер:    Зареєстрований   

Завантажити / скачати фільм українською



відео для новачків



 Зареєстрований:   2013-09-14 18:51
 Розмір:   23.27 GB 
 Оцінка фільму:   8.6/10 (Голосів: 94)
   
Milvus 
Свій


З нами з: 01.02.12
Востаннє: 15.06.15
Повідомлень: 86

2013-09-14 19:24  
igor911 написано:
Кінокомпанія: Marvel Studios, Paramount Pictures, DMG Entertainment

Офіційний дистриб'ютор Залізної Людини 3 Walt Disney Studios Motion Pictures, а не Paramount.
Paramount Pictures досі мають права на заставку ( тобто у фільмі був значок парамаунта, а не діснея).
Тому, краще виправіть.

migelius 
Свій


З нами з: 29.02.08
Востаннє: 27.11.16
Повідомлень: 97

2013-09-14 20:11  
А чи планується кращий дубляж? Тобто не з двд а наприклад з блюрея? Це питання стосується 3 частини.
Anonymous 







2013-09-14 20:22  
Блурік вже давно вийшов і дубляжу там не було. І, мабуть, не буде. Дякуйте що хоч такий є, бо останнім часом це трапляється все рідше.

Додано через 3 хвилини 21 секунду:

Y.A. написано:

Офіційний дистриб'ютор Залізної Людини 3 Walt Disney Studios Motion Pictures, а не Paramount.
Paramount Pictures досі мають права на заставку ( тобто у фільмі був значок парамаунта, а не діснея).
Тому, краще виправіть.

Я користувався інфою з імдб, а ви не навели джерела, тому поки залишу як є.

Додано через 1 хвилину 41 секунду:

До того ж тут вказуються саме виробники фільму, а не десятки диструбуторів по всьому світу.

Milvus 
Свій


З нами з: 01.02.12
Востаннє: 15.06.15
Повідомлень: 86

2013-09-15 12:08  
Саме виробником фільму є Дісней. Можете перевірити на англ. вікіпедії там і посилання на джерело є.
Hentaihunter 
VIP


З нами з: 16.08.08
Востаннє: 03.12.16
Повідомлень: 2149

2013-10-19 15:31  
Залізна людина: Місія в Україні

valkovrgor 
Новенький


З нами з: 12.07.14
Востаннє: 12.05.16
Повідомлень: 1

2014-11-26 18:50  
Дякую за трилогію)
OSx86 
Частий відвідувач


З нами з: 15.09.12
Востаннє: 12.11.16
Повідомлень: 39

2014-11-26 20:04  
Жаль роздача не золото(
Anonymous 







2014-11-26 20:07  
З введенням Бонусів за золото та рейтинг можна не переживати - тільки стій на роздачі, він сам ростиме.
goser 
Частий відвідувач


З нами з: 19.12.07
Востаннє: 28.11.16
Повідомлень: 41

2016-11-06 19:58  
Дякую!
Порадую дітей фантастикою з українським перекладом.

Ваш часовий пояс: GMT + 2 Години

Нова тема   Відповісти