Завантажити та скачати торренти українською


Подвійна страховка / Double Indemnity (1944) 720p Ukr/Eng | sub Eng

Нові коментарі

Нова тема   Відповісти
Автор Повідомлення
Omikron 
VIP


З нами з: 03.01.12
Востаннє: 30.11.16
Повідомлень: 297

2013-09-14 12:05  
Подвійна страховка / Double Indemnity (1944) 720p Ukr/Eng | sub Eng

Подвійна страховка / Double Indemnity (1944) 720p Ukr/Eng | sub Eng


Жанр: нуар, трилер
Країна: США

Top-250 #55

Кінокомпанія: Paramount Pictures
Режисер: Біллі Вайлдер
Актори: Барбара Стенвік, Фред Макмюррей, Едвард Робінсон

Сюжет:
Страховий агент Волтер Нефф випадково знайомиться з фатальною красунею Філіс, дружиною одного з клієнтів, і миттєво закохується. Аби допомогти нещасній жінці позбутися жорстокого чоловіка, Нефф дозволяє втягнути себе у злочин. Тепер, здається, ніщо не стоїть на заваді кримінальним коханцям, до того ж сто тисяч доларів самі йдуть до рук. Та коли Бартон Кейз, тертий калач у світі страхування, починає власне розслідування, життя Неффа перетворюється на нічне жахіття…


Українською мовою озвучено студією Омікрон на замовлення HURTOM.COM


Тривалість: 01:47:55
Якість:
Відео:
кодек:
розмір кадру: 948x720
бітрейт: 5543 кб/с

Аудіо # 1:
мова: українська | Омікрон
переклад: багатоголосий закадровий
кодек: 2.0
бітрейт: 224 кб/с

Аудіо # 2:
мова: англійська
переклад: оригінал
кодек: 2.0
бітрейт: 224 кб/с

Субтитри:
мова: англійська
тип: програмні (м'які)
формат: *.srt

Звіт MediaInfo
General
Unique ID : 233057620895517447137205489340160234713 (0xAF5543DC9CD96C96B3E7AD0DE04554D9)
Complete name : Double Identity (1944) [ukr,eng] 720p [Hurtom].mkv
Format : Matroska
Format version : Version 4 / Version 2
File size : 4.60 GiB
Duration : 1h 47mn
Overall bit rate : 6 104 Kbps
Movie name : Подвійна страховка / Double Indemnity (1944) [Hurtom]
Encoded date : UTC 2013-09-14 09:47:44
Writing application : mkvmerge v6.2.0 ('Promised Land') built on Apr 28 2013 12:22:01
Writing library : libebml v1.3.0 + libmatroska v1.4.0

Video
ID : 1
Format : AVC
Format/Info : Advanced Video Codec
Format profile : [email protected]
Format settings, CABAC : Yes
Format settings, ReFrames : 8 frames
Codec ID : V_MPEG4/ISO/AVC
Duration : 1h 47mn
Bit rate : 5 534 Kbps
Width : 948 pixels
Height : 720 pixels
Display aspect ratio : 4:3
Frame rate mode : Constant
Frame rate : 23.976 fps
Color space : YUV
Chroma subsampling : 4:2:0
Bit depth : 8 bits
Scan type : Progressive
Bits/(Pixel*Frame) : 0.338
Stream size : 4.17 GiB (91%)
Writing library : core 133 r2334 a3ac64b
Encoding settings : cabac=1 / ref=8 / deblock=1:-1:-1 / analyse=0x3:0x133 / me=umh / subme=10 / psy=1 / psy_rd=1.00:0.15 / mixed_ref=1 / me_range=32 / chroma_me=1 / trellis=2 / 8x8dct=1 / cqm=0 / deadzone=21,11 / fast_pskip=0 / chroma_qp_offset=-3 / threads=12 / lookahead_threads=1 / sliced_threads=0 / nr=0 / decimate=1 / interlaced=0 / bluray_compat=0 / constrained_intra=0 / bframes=3 / b_pyramid=2 / b_adapt=2 / b_bias=0 / direct=3 / weightb=1 / open_gop=0 / weightp=2 / keyint=240 / keyint_min=23 / scenecut=40 / intra_refresh=0 / rc_lookahead=60 / rc=crf / mbtree=1 / crf=21.0 / qcomp=0.60 / qpmin=0 / qpmax=69 / qpstep=4 / vbv_maxrate=31250 / vbv_bufsize=31250 / crf_max=0.0 / nal_hrd=none / ip_ratio=1.40 / aq=1:1.00
Default : Yes
Forced : No

Audio #1
ID : 2
Format : AC-3
Format/Info : Audio Coding 3
Mode extension : CM (complete main)
Format settings, Endianness : Big
Codec ID : A_AC3
Duration : 1h 47mn
Bit rate mode : Constant
Bit rate : 224 Kbps
Channel(s) : 2 channels
Channel positions : Front: L R
Sampling rate : 48.0 KHz
Bit depth : 16 bits
Compression mode : Lossy
Stream size : 173 MiB (4%)
Title : Озвучено студією Омікрон на замовлення hurtom.com
Language : Ukrainian
Default : Yes
Forced : No

Audio #2
ID : 3
Format : AC-3
Format/Info : Audio Coding 3
Mode extension : CM (complete main)
Format settings, Endianness : Big
Codec ID : A_AC3
Duration : 1h 47mn
Bit rate mode : Constant
Bit rate : 224 Kbps
Channel(s) : 2 channels
Channel positions : Front: L R
Sampling rate : 48.0 KHz
Bit depth : 16 bits
Compression mode : Lossy
Stream size : 173 MiB (4%)
Title : Original
Language : English
Default : No
Forced : No

Text
ID : 4
Format : UTF-8
Codec ID : S_TEXT/UTF8
Codec ID/Info : UTF-8 Plain Text
Title : Original
Language : English
Default : No
Forced : No
log
[info]: frame I:808 Avg QP:20.22 size:100507
[info]: frame P:43092 Avg QP:23.30 size: 42630
[info]: frame B:111348 Avg QP:24.65 size: 23869
[info]: consecutive B-frames: 0.8% 2.1% 25.6% 71.5%
[info]: mb I I16..4: 6.7% 82.3% 11.1%
[info]: mb P I16..4: 0.2% 11.6% 0.6% P16..4: 43.5% 26.2% 16.4% 0.2% 0.0% skip: 1.3%
[info]: mb B I16..4: 0.0% 3.0% 0.1% B16..8: 51.4% 14.1% 4.6% direct: 9.2% skip:17.6% L0:47.5% L1:45.5% BI: 7.0%
[info]: 8x8 transform intra:93.3% inter:66.4%
[info]: direct mvs spatial:99.8% temporal:0.2%
[info]: coded y,uvDC,uvAC intra: 97.1% 0.9% 0.2% inter: 48.7% 0.1% 0.0%
[info]: i16 v,h,dc,p: 30% 14% 28% 28%
[info]: i8 v,h,dc,ddl,ddr,vr,hd,vl,hu: 7% 8% 15% 11% 13% 12% 12% 10% 11%
[info]: i4 v,h,dc,ddl,ddr,vr,hd,vl,hu: 5% 34% 5% 7% 11% 10% 10% 8% 10%
[info]: i8c dc,h,v,p: 99% 0% 1% 0%
[info]: Weighted P-Frames: Y:48.9% UV:0.6%
[info]: ref P L0: 32.0% 11.0% 15.3% 10.9% 8.3% 7.8% 6.7% 4.8% 2.8% 0.6%
[info]: ref B L0: 54.7% 17.8% 10.3% 6.4% 5.2% 3.8% 1.9%
[info]: ref B L1: 90.0% 10.0%
[info]: kb/s:5653.54
Про озвучення

Українське озвучення створено в рамках проекту "Хочеш кіно українською? Замовляй!"



Дякуємо користувачам, що фінансово допомогли проекту:
Tarasyk, andy_pit, ratbol, willian, Masanchick, Demetrios, Qualcuno, Violator, Yelovbasted, contrabass, yuranako, Tanat13

Детальніше про проект.


Джерело:
За українізацію постеру подяка Gelios.

Фільми, які було озвучено на замовлення Гуртом (допоможіть озвучити наступні):
М: Місто шукає вбивцю (1931)
Чарівник країни Оз (1939)
Великий диктатор (1940)
Громадянин Кейн (1941)
Подвійна страховка (1944)
Це дивовижне життя (1946)
Викрадачі велосипедів (1948)
Рашьомон (1950)
Сім самураїв (1954)
У випадку вбивства телефонуйте "М" (1954)
Леді та Блудько (1955) нове
12 розгніваних чоловіків (1957)
Сьома печатка (1957)
На північ через північний захід (1959)
Більярдист (1961)
Охоронець (1961)
Вбити пересмішника (1962)
Людина, що вбила Ліберті Веленса (1962)
Вісім з половиною (1963)
Велика прогулянка (1966)
Як Ґрінч украв Різдво! (1966)
Випускник (1967)
Самурай (1967)
Одного разу на Дикому Заході (1968)
Коти-аристократи (1970)
Механічний апельсин (1971)
Навколо світу за 80 днів (1972) нове
Китайський квартал (1974)
Пролітаючи над гніздом зозулі (1975)
Телемережа (1976)
Енні Голл (1977) нове
Мисливець на оленів (1978)
Буття Брайана за Монті Пайтоном (1979)
Коли я буду там (1979)
Мангеттен (1979)
Людина-слон (1980)
Приборкання норовливого (1980)
Скажений бик (1980)
Підводний човен (1981)
Ґанді (1982)
Король комедії (1982) нове
Різдвяна історія (1983)
Амадей (1984)
Барва пурпурова (1985)
Бразилія (1985)
Ран (1985)
Великий мишачий детектив (1986)
Небесний замок Лапута (1986)
Акіра (1988)
Мій сусід Тоторо (1988)
Останній з могікан (1992)
Скажені пси (1992)
Шосе в нікуди (1997) нове
Американська історія Ікс (1998)
Страх і огида в Лас-Вегасі (1998)
Шоу Трумена (1998)
Догма (1999)
Магнолія (1999) нове
Сука любов (2000) нове
Нічия земля (2001)
Родина Тененбаумів (2001)
Тріо з Бельвіля (2003)
Труднощі перекладу (2003)
Бункер (2004)
Готель Руанда (2004)
Тренер Картер (2005)
Льодовиковий період 2 (2006)
Лабіринт Фавна (2006)
Людина з планети Земля (2007)
В тіні місяця (2007)
Голод (2008)
Іп Мен (2008)
Викрадена (2008)
Впусти мене (2008)
Хвиля (2008)
Містер Ніхто (2009)
13 вбивць (2010)
Бетмен: Під червоною маскою (2010)
Іп Мен 2 (2010)
Котяче життя (2010)
Позичайка Аріетті (2010)
Чорний Лебідь (2010)
Місто (2010)
Сенна (2010)
50/50 (2011)
Адвокат на лінкольні (2011)
Дерево життя (2011)
Опівночі в Парижі (2011)
Воїн (2011)
Драйв (2011)
Життя за один день (2011)
Укриття (2011)
Хижа в лісі (2011)
Рейд: Спокута (2011)
Акт вбивства (2012)
Арго (2012)
Безпека не гарантується (2012)
Викрадена 2 (2012)
Збірка промінців надії (2012)
Ернест і Селестіна (2012)
Звірі дикого Півдня (2012)
Лінкольн (2012)
Любов (2012)
Надійні хлопці (2012)
Паркер (2012)
Переваги скромників (2012)
Пліч-о-пліч (2012)
Полювання (2012)
Розірване коло (2012)
Суддя Дредд (2012)
Тридцять хвилин по півночі (2012)
Що б ви зробили (2012)
Американська афера (2013)
Виклик (2013)
Вона (2013)
Ворог (2013)
Всередині Л'ювіна Девіса (2013)
Джо (2013)
Зловісні мерці (2013)
Іда (2013)
Лок (2013)
Небраска (2013)
Неймовірна подорож містера Співета (2013) нове
Побічна дія (2013)
Перед північчю (2013)
Снігобур (2013)
Стокер (2013)
TPB: за межами клавіатури (2013)
Гниле місто (2013)
Бердмен (2014)
Вероніка Марс (2014)
Вроджена вада (2014) нове
Дика (2014) нове
Інтерв'ю (2014) нове
Святий Вінсент (2014)
Пісня моря (2014) нове
Призначення (2014) нове
Шеф-кухар (2014)


Авторський реліз (завантажувати можна без реєстрації)
 Трекер:    Зареєстрований   

Завантажити / скачати фільм українською



відео для новачків



 Зареєстрований:   2013-09-14 14:22
 Розмір:   4.6 GB 
 Оцінка фільму:   9.7/10 (Голосів: 14)
   
Інші релізи
NeetScrool 
Відео Гуртом - фільмокрай
Відео Гуртом - фільмокрай


З нами з: 10.01.13
Востаннє: 03.12.16
Повідомлень: 2207

2013-09-15 10:01  
crf=21, навіть боюся уявити що там. Враховуючи те, що на сорсі купа шуму від старої плівки.
Konfucius 
Управління
Управління


З нами з: 30.09.07
Востаннє: 03.12.16
Повідомлень: 4739

2013-09-15 11:43  
Додав порівняльні скріншоти.
waldi-hurtom 
VIP


З нами з: 07.10.12
Востаннє: 02.12.16
Повідомлень: 611

2013-09-18 19:55  
Чудовий фільм! Навіть не віриться, що знято у 40-і, 9 з 10.
ninenine 
Відео Гуртом - фільмокрай
Відео Гуртом - фільмокрай


З нами з: 23.10.09
Востаннє: 03.12.16
Повідомлень: 1147

2013-09-18 21:20  
Цікавий детектив, хоча кінець фільму мені не дуже сподобався, тепер такого не знімають 8 з 10.
Ваш часовий пояс: GMT + 2 Години

Нова тема   Відповісти