Завантажити та скачати торренти українською


Залізна людина 3 / Iron Man 3 (2013) Remux 1080p Remux Ukr/Eng | Sub Ukr/Eng

Нові коментарі

Нова тема   Відповісти
Автор Повідомлення
Drool 
VIP


З нами з: 17.04.10
Востаннє: 02.12.16
Повідомлень: 1262

2013-09-13 13:46  
Залізна людина 3 / Iron Man 3 (2013) Remux 1080p Ukr/Eng | Sub Ukr/Eng

Жанр: фантастика, бойовик, пригодницький
Країна: США, Китай



Кінокомпанія: Fairview Entertainment, Marvel Studios Inc., Noble Media, Outlaw Sinema, Paramount Pictures
Режисер: Шейн Блек
Актори: Роберт Дауні мол., Ґвінет Пелтроу, Дон Чідл, Ґай Пірс, Бен Кінґслі, Ребекка Холл, Пол Беттані, Джон Фавро, Уільям Седлер, Джеймс Бедж Дейл

Сюжет:
Коли світ Тоні Старка валиться на його очах з вини невідомих супротивників, герой жадає знайти винних і звести з ними рахунки. Опинившись у безвихідній ситуації, Старк може розраховувати тільки на себе і свою винахідливість, щоб захистити тих, хто йому дорогий. Це стає справжнім випробуванням для героя, якому доведеться не тільки битися з підступним ворогом, але і розібратися в собі, щоб знайти відповідь на питання, яке давно його хвилює: що важливіше - людина чи костюм?


Тривалість: 02:10:32
Якість: Remux 1080p
Відео:
кодек:
розмір кадру: 1920x1080
бітрейт: 26.4 Мб/с

Аудіо # 1:
мова: українська
переклад: професійний дубльований
кодек: 5.1
бітрейт: 384 кб/с

Аудіо # 2:
мова: англійська
переклад: оригінал
кодек: -MA 7.1
бітрейт: 1606 кб/с

Джерело озвучення:


Субтитри 1:
мова: українська
тип: програмні форсовані (м'які)
формат: *.srt

Субтитри 2:
мова: українська
тип: програмні (м'які)
формат: *.srt

Субтитри 3, 4, 5:
мова: англійська
тип: програмні (м'які) | 3 варіанта
формат: *.srt

Субтитри 6:
мова: англійська (SDH)
тип: програмні (м'які)
формат: *.srt

Субтитри 7:
мова: англійська (SDH Color)
тип: програмні (м'які)
формат: *.srt
MediaInfo
General
Unique ID : 161270076236564229018663218315350512271 (0x79537CA5335AABC8416EE700BD28128F)
Complete name : ./Iron.Man.3.2013.Ukr.Dub.Remux.1080p.mkv
Format : Matroska
Format version : Version 4 / Version 2
File size : 26.4 GiB
Duration : 2h 10mn
Overall bit rate mode : Variable
Overall bit rate : 29.0 Mbps
Movie name : Залізна людина 3 / Iron Man 3 (2013) Remux
Encoded date : UTC 2010-02-22 21:41:31
Writing application : mkvmerge v6.1.0 ('Old Devil') built on Apr 14 2013 12:26:22
Writing library : libebml v1.3.0 + libmatroska v1.4.0

Video
ID : 1
Format : AVC
Format/Info : Advanced Video Codec
Format profile : [email protected]
Format settings, CABAC : Yes
Format settings, ReFrames : 4 frames
Format settings, GOP : M=3, N=12
Codec ID : V_MPEG4/ISO/AVC
Duration : 2h 10mn
Bit rate mode : Variable
Bit rate : 26.4 Mbps
Maximum bit rate : 30.0 Mbps
Width : 1 920 pixels
Height : 1 080 pixels
Display aspect ratio : 16:9
Frame rate : 23.976 fps
Color space : YUV
Chroma subsampling : 4:2:0
Bit depth : 8 bits
Scan type : Progressive
Bits/(Pixel*Frame) : 0.532
Stream size : 24.1 GiB (91%)
Title : Залізна людина 3 / Iron Man 3 (2013) Remux
Default : Yes
Forced : No

Audio #1
ID : 2
Format : AC-3
Format/Info : Audio Coding 3
Mode extension : CM (complete main)
Codec ID : A_AC3
Duration : 2h 10mn
Bit rate mode : Constant
Bit rate : 384 Kbps
Channel(s) : 6 channels
Channel positions : Front: L C R, Side: L R, LFE
Sampling rate : 48.0 KHz
Bit depth : 16 bits
Compression mode : Lossy
Stream size : 359 MiB (1%)
Title : Українська (дубляж) DVD R5 | Drool
Language : Ukrainian
Default : Yes
Forced : No

Audio #2
ID : 3
Format :
Format/Info : Digital Theater Systems
Format profile : MA / Core
Codec ID : A_DTS
Duration : 2h 10mn
Bit rate mode : Variable
Bit rate : 1 606 Kbps / 1 510 Kbps
Channel(s) : 8 channels / 6 channels
Channel positions : Front: L C R, Side: L R, Back: L R, LFE / Front: L C R, Side: L R, LFE
Sampling rate : 48.0 KHz
Bit depth : 24 bits
Compression mode : Lossless / Lossy
Title : Original
Language : English
Default : No
Forced : No

Text #1
ID : 4
Format : UTF-8
Codec ID : S_TEXT/UTF8
Codec ID/Info : UTF-8 Plain Text
Title : Українські (форсовані)
Language : Ukrainian
Default : Yes
Forced : No

Text #2
ID : 5
Format : UTF-8
Codec ID : S_TEXT/UTF8
Codec ID/Info : UTF-8 Plain Text
Title : Українські (повні)
Language : Ukrainian
Default : No
Forced : No

Text #3
ID : 6
Format : UTF-8
Codec ID : S_TEXT/UTF8
Codec ID/Info : UTF-8 Plain Text
Title : English (full)
Language : English
Default : No
Forced : No

Text #4
ID : 7
Format : UTF-8
Codec ID : S_TEXT/UTF8
Codec ID/Info : UTF-8 Plain Text
Title : English (full)
Language : English
Default : No
Forced : No

Text #5
ID : 8
Format : UTF-8
Codec ID : S_TEXT/UTF8
Codec ID/Info : UTF-8 Plain Text
Title : English (Songs)
Language : English
Default : No
Forced : No

Text #6
ID : 9
Format : UTF-8
Codec ID : S_TEXT/UTF8
Codec ID/Info : UTF-8 Plain Text
Title : English (SDH)
Language : English
Default : No
Forced : No

Text #7
ID : 10
Format : UTF-8
Codec ID : S_TEXT/UTF8
Codec ID/Info : UTF-8 Plain Text
Title : English (SDH Color)
Language : English
Default : No
Forced : No
Скріншоти









Джерело:
Особиста оцінка: 10 - без зайвих вагань рекомендую всім!


Золотий реліз (завантажене не впливає на рейтинг)
 Трекер:    Зареєстрований   

Завантажити / скачати фільм українською



відео для новачків



 Зареєстрований:   2013-09-15 00:35
 Розмір:   26.45 GB 
 Оцінка фільму:   10/10 (Голосів: 30)
   
Інші релізи
bot 
робот


З нами з: 30.09.07
Востаннє: 26.05.05
Повідомлень: 15973

2013-09-13 13:46  
Тему перенесено з Фільми в HD до форуму Анонси релізів від Відео Гуртом


Drool

Drool 
VIP


З нами з: 17.04.10
Востаннє: 02.12.16
Повідомлень: 1262

2013-09-13 13:47  
Буде сьогодні-завтра.
[email protected] 
Частий відвідувач


З нами з: 14.05.12
Востаннє: 28.11.16
Повідомлень: 37

2013-09-14 17:15  
Нарешті !
bot 
робот


З нами з: 30.09.07
Востаннє: 26.05.05
Повідомлень: 15973

2013-09-15 00:32  
Тему перенесено з Анонси релізів від Відео Гуртом до форуму Фільми в HD


Drool

Drool 
VIP


З нами з: 17.04.10
Востаннє: 02.12.16
Повідомлень: 1262

2013-09-15 00:36  
Вибачайте, але роздача вже буде безпосередньо завтра.
Did Kokos 
VIP


З нами з: 27.05.13
Востаннє: 03.12.16
Повідомлень: 347

2013-09-15 12:36  
Вибачте за жадібне і ненаситне моє єство, та чи буде звук 448 і краще??? Просто для довідки!
11FrYkT 
Модератор відео


З нами з: 20.02.11
Востаннє: 03.12.16
Повідомлень: 3065

2013-09-15 12:51  
Did Kokos , ні це звук з ДВД, блурей вже вийшов і там немає ніякого
lnkvisitor 
Новенький


З нами з: 15.09.13
Востаннє: 31.10.16
Повідомлень: 9

2013-09-15 13:12  
На роздачi...
Drool 
VIP


З нами з: 17.04.10
Востаннє: 02.12.16
Повідомлень: 1262

2013-09-15 18:34  
lnkvisitor написано:
На роздачi...

Дякую Happy

stepan stepanov 
Новенький


З нами з: 17.12.10
Востаннє: 03.12.16
Повідомлень: 22

2013-11-14 00:36  
Цитата:
щоб знайти відповідь на питання, який давно його турбує: що важливіше

Помилка в описі сюжету Rolleyes (2)

jigitos 
Свій


З нами з: 28.11.10
Востаннє: 17.10.16
Повідомлень: 124

2014-07-11 16:52  
Панове а де можна знайти цей фільм? у 3Д форматі?
Ваш часовий пояс: GMT + 2 Години

Нова тема   Відповісти