Завантажити та скачати торренти українською


Залізна людина 3 / Iron Man 3 (2013) 720p-mini

Нові коментарі

Нова тема   Відповісти
Автор Повідомлення
Drool 
VIP


З нами з: 17.04.10
Востаннє: 10.12.16
Повідомлень: 1270

2013-09-13 02:04  
Залізна людина 3 / Iron Man 3 (2013) 720p-mini

Жанр: фантастика, бойовик, пригодницький
Країна: США, Китай



Кінокомпанія: Fairview Entertainment, Marvel Studios Inc., Noble Media, Outlaw Sinema, Paramount Pictures
Режисер: Шейн Блек
Актори: Роберт Дауні мол., Ґвінет Пелтроу, Дон Чідл, Ґай Пірс, Бен Кінґслі, Ребекка Холл, Пол Беттані, Джон Фавро, Уільям Седлер, Джеймс Бедж Дейл

Сюжет:
Коли світ Тоні Старка валиться на його очах з вини невідомих супротивників, герой жадає знайти винних і звести з ними рахунки. Опинившись у безвихідній ситуації, Старк може розраховувати тільки на себе і свою винахідливість, щоб захистити тих, хто йому дорогий. Це стає справжнім випробуванням для героя, якому доведеться не тільки битися з підступним ворогом, але і розібратися в собі, щоб знайти відповідь на питання, який давно його турбує: що важливіше - людина чи костюм?


Тривалість: 02:10:32
Якість: 720p-mini
Відео:
кодек:
розмір кадру: 1280x534
бітрейт: 2450 кб/с

Аудіо:
мова: українська
переклад: професійний дубльований
кодек: 5.1
бітрейт: 384 кб/с

Джерело озвучення:


Субтитри:
мова: українська
тип: програмні (м'які, форсовані)
формат: *.srt
MediaInfo
General
Unique ID : 152563767586157020990127959460048210211 (0x72C6B67CD4C31CEE201A6B24B80B0923)
Complete name : /mnt/disk_d/Video/Films/Iron.Man.3.2013.Ukr.Dub..720p.mkv
Format : Matroska
File size : 2.64 GiB
Duration : 2h 10mn
Overall bit rate : 2 892 Kbps
Movie name : Залізна людина 3 / Iron Man 3 (2013) 720p -=LEONARDO=-
Encoded date : UTC 2013-09-12 23:33:23
Writing application : mkvmerge v4.8.0 ('I Got The...') built on Aug 22 2011 13:16:28
Writing library : libebml v1.2.0 + libmatroska v1.1.0

Video
ID : 1
Format : AVC
Format/Info : Advanced Video Codec
Format profile : [email protected]
Format settings, CABAC : Yes
Format settings, ReFrames : 8 frames
Codec ID : V_MPEG4/ISO/AVC
Duration : 2h 10mn
Bit rate : 2 450 Kbps
Width : 1 280 pixels
Height : 534 pixels
Display aspect ratio : 2.35:1
Frame rate : 23.976 fps
Color space : YUV
Chroma subsampling : 4:2:0
Bit depth : 8 bits
Scan type : Progressive
Bits/(Pixel*Frame) : 0.150
Stream size : 2.23 GiB (85%)
Title : Залізна людина 3 / Iron Man 3 (2013) 720p
Writing library : core 125 r2208 d9d2288
Encoding settings : cabac=1 / ref=8 / deblock=1:-3:-3 / analyse=0x3:0x133 / me=umh / subme=11 / psy=1 / psy_rd=0.98:0.00 / mixed_ref=1 / me_range=32 / chroma_me=1 / trellis=2 / 8x8dct=1 / cqm=0 / deadzone=21,11 / fast_pskip=0 / chroma_qp_offset=-2 / threads=12 / lookahead_threads=2 / sliced_threads=0 / nr=0 / decimate=1 / interlaced=0 / bluray_compat=0 / constrained_intra=0 / bframes=8 / b_pyramid=2 / b_adapt=2 / b_bias=0 / direct=1 / weightb=1 / open_gop=0 / weightp=2 / keyint=250 / keyint_min=23 / scenecut=40 / intra_refresh=0 / rc=crf / mbtree=0 / crf=17.8 / qcomp=0.60 / qpmin=0 / qpmax=69 / qpstep=4 / ip_ratio=1.40 / pb_ratio=1.30 / aq=2:0.90

Audio
ID : 2
Format : AC-3
Format/Info : Audio Coding 3
Mode extension : CM (complete main)
Codec ID : A_AC3
Duration : 2h 10mn
Bit rate mode : Constant
Bit rate : 384 Kbps
Channel(s) : 6 channels
Channel positions : Front: L C R, Side: L R, LFE
Sampling rate : 48.0 KHz
Bit depth : 16 bits
Compression mode : Lossy
Stream size : 359 MiB (13%)
Title : Українська (дубляж) DVD R5
Language : Ukrainian

Text
ID : 3
Format : UTF-8
Codec ID : S_TEXT/UTF8
Codec ID/Info : UTF-8 Plain Text
Title : Українські (форсовані)
Language : Ukrainian
Скріншоти








Походження: відеоряд взято з ріпу
Особиста оцінка: 10 - без зайвих вагань рекомендую всім!


 Трекер:    Зареєстрований   

Завантажити / скачати фільм українською



відео для новачків



 Зареєстрований:   2013-09-13 02:04
 Розмір:   2.64 GB 
 Оцінка фільму:   9.6/10 (Голосів: 53)
   
dima77777 
Поважний учасник


З нами з: 28.11.12
Востаннє: 09.12.16
Повідомлень: 198

2013-09-13 06:23  
ДЯКУЮ ВАМ!!!!
Drool 
VIP


З нами з: 17.04.10
Востаннє: 10.12.16
Повідомлень: 1270

2013-09-13 11:00  
Синхронізацію доріжки з DVD на робив вперше, тому прошу не бити ногами, якщо щось не так вийшло.
Bohdan237 
Відео Гуртом - фільмокрай
Відео Гуртом - фільмокрай


З нами з: 12.02.12
Востаннє: 10.12.16
Повідомлень: 383

2013-09-13 16:03  
Drool написано:
Синхронізацію доріжки з DVD на робив вперше, тому прошу не бити ногами, якщо щось не так вийшло.

Судячи з семплу якість звуку та відео відмінна Wink (1)

crasy_dog 
Частий відвідувач


З нами з: 06.06.10
Востаннє: 24.11.16
Повідомлень: 30

2013-09-20 19:06  
Дякую за хорошу якість)
Ваш часовий пояс: GMT + 2 Години

Нова тема   Відповісти