Завантажити та скачати торренти українською


Знедолені / Les Miserables (1998) 720p Ukr/Eng | Sub Eng

Нові коментарі

Нова тема   Відповісти
Автор Повідомлення
Anonymous 







2013-09-12 18:51  
Знедолені / Les Miserables (1998) 720p Ukr/Eng | Sub Eng



Альтернативний українізований постер



Жанр: трилер, драма, мелодрама, кримінальний, історичний
Країна: Велика Британія, Німеччина, США



Кінокомпанія: Mandalay Entertainment, TriStar Pictures
Режисер: Біллі Огест / Bille August
Актори: Ліам Нісон / Liam Neeson, Джеффрі Раш / Geoffrey Rush, Ума Турман / Uma Thurman, Клер Дейнс / Claire Danes, Ганс Метісон / Hans Matheson, Рейне Брінолфссон / Reine Brynolfsson

Сюжет:
Екранізація однойменного роману Віктора Гюго. Перша половина дев'ятнадцятого століття. Франція. Європа перебуває на порозі революції. Жан Вальжан - знедолений, засуджений до тюремного ув'язнення і вимушений переховуватися від жорстокого правосуддя. Начальник паризького департаменту поліції Жавер вважає його упіймання справою свого життя. Після смерті коханої Жана єдиною близькою людиною для нього залишається її дочка Козетта. Він піде на все заради щастя дівчини... Навіть назустріч своєму найлютішому ворогові...


рейтинг MPAA: PG-13 - дітям до 13 років перегляд не бажаний
Вікова категорія: 12+

Тривалість: 02:13:57
Якість: 720p
Відео:
кодек:
розмір кадру: 1280x536
бітрейт: 4329 кб/с

Аудіо # 1:
мова: українська - Так Треба Продакшн на замовлення
переклад: багатоголосий закадровий
Ролі озвучили: Олег Стальчук (Ліам Нісон / Жан Вальжан), Анатолій Зіновенко (Джефрі Раш / Жавер), Людмила Чиншева і ще один жіночий голос
кодек: 5.1
бітрейт: 384 кб/с

Аудіо # 2:
мова: англійська
переклад: оригінал
кодек: 5.1
бітрейт: 448 кб/с

Субтитри:
мова: англійська
тип: програмні (м'які)
формат: *.srt
MediaInfo
General
Unique ID : 198542164900726621176678102851921026444 (0x955DD47ED99B470EBC616F16CECE9D8C)
Complete name : Les Miserables (1998) [Ukr,Eng;sub.Eng] 720p [Hurtom].mkv
Format : Matroska
Format version : Version 4 / Version 2
File size : 4.83 GiB
Duration : 2h 13mn
Overall bit rate : 5 163 Kbps
Movie name : Знедолені / Les Miserables / Отверженные (1998) 720p [Hurtom]
Encoded date : UTC 2013-09-12 16:09:53
Writing application : mkvmerge v6.3.0 ('You can't stop me!') built on Jun 28 2013 20:09:41
Writing library : libebml v1.3.0 + libmatroska v1.4.0

Video
ID : 1
Format : AVC
Format/Info : Advanced Video Codec
Format profile : [email protected]
Format settings, CABAC : Yes
Format settings, ReFrames : 5 frames
Codec ID : V_MPEG4/ISO/AVC
Duration : 2h 13mn
Bit rate : 4 329 Kbps
Width : 1 280 pixels
Height : 536 pixels
Display aspect ratio : 2.40:1
Frame rate mode : Constant
Frame rate : 23.976 fps
Color space : YUV
Chroma subsampling : 4:2:0
Bit depth : 8 bits
Scan type : Progressive
Bits/(Pixel*Frame) : 0.263
Stream size : 3.96 GiB (82%)
Title : Знедолені / Les Miserables / Отверженные (1998) 720p [HD4U-brrip.eu]
Writing library : core 129 r2230 1cffe9f
Encoding settings : cabac=1 / ref=5 / deblock=1:0:0 / analyse=0x3:0x133 / me=umh / subme=7 / psy=1 / psy_rd=1.00:0.00 / mixed_ref=1 / me_range=16 / chroma_me=1 / trellis=1 / 8x8dct=1 / cqm=0 / deadzone=21,11 / fast_pskip=0 / chroma_qp_offset=-2 / threads=12 / lookahead_threads=2 / sliced_threads=0 / nr=0 / decimate=1 / interlaced=0 / bluray_compat=0 / constrained_intra=0 / bframes=3 / b_pyramid=2 / b_adapt=1 / b_bias=0 / direct=1 / weightb=1 / open_gop=0 / weightp=2 / keyint=250 / keyint_min=23 / scenecut=40 / intra_refresh=0 / rc_lookahead=40 / rc=2pass / mbtree=1 / bitrate=4329 / ratetol=1.0 / qcomp=0.60 / qpmin=0 / qpmax=69 / qpstep=4 / cplxblur=20.0 / qblur=0.5 / ip_ratio=1.40 / aq=1:1.00
Language : English
Default : Yes
Forced : No

Audio #1
ID : 2
Format : AC-3
Format/Info : Audio Coding 3
Mode extension : CM (complete main)
Format settings, Endianness : Big
Codec ID : A_AC3
Duration : 2h 13mn
Bit rate mode : Constant
Bit rate : 384 Kbps
Channel(s) : 6 channels
Channel positions : Front: L C R, Side: L R, LFE
Sampling rate : 48.0 KHz
Bit depth : 16 bits
Compression mode : Lossy
Stream size : 368 MiB (7%)
Title : MVO [Inter-TakTrebaProduction] 5.1 384 kbps [Hurtom-Lan]
Language : Ukrainian
Default : Yes
Forced : No

Audio #2
ID : 3
Format : AC-3
Format/Info : Audio Coding 3
Mode extension : CM (complete main)
Format settings, Endianness : Big
Codec ID : A_AC3
Duration : 2h 13mn
Bit rate mode : Constant
Bit rate : 448 Kbps
Channel(s) : 6 channels
Channel positions : Front: L C R, Side: L R, LFE
Sampling rate : 48.0 KHz
Bit depth : 16 bits
Compression mode : Lossy
Stream size : 429 MiB (9%)
Title : Original 5.1 448 kbps
Language : English
Default : No
Forced : No

Text
ID : 4
Format : UTF-8
Codec ID : S_TEXT/UTF8
Codec ID/Info : UTF-8 Plain Text
Title : Eng full
Language : English
Default : No
Forced : No

Menu
00:00:00.000 : en:00:00:00.000
00:06:20.922 : en:00:06:20.922
00:16:18.519 : en:00:16:18.519
00:26:56.865 : en:00:26:56.865
00:35:40.513 : en:00:35:40.513
00:47:21.047 : en:00:47:21.047
00:55:15.062 : en:00:55:15.062
01:01:47.120 : en:01:01:47.120
01:13:37.955 : en:01:13:37.955
01:16:37.551 : en:01:16:37.551
01:24:04.790 : en:01:24:04.790
01:36:09.639 : en:01:36:09.639
01:40:08.419 : en:01:40:08.419
01:50:08.894 : en:01:50:08.894
01:55:17.160 : en:01:55:17.160
02:04:56.072 : en:02:04:56.072


Джерела та подяки:
ріп відео, оригінальні субтитри - HD4U (brrip.eu); українська доріжка - Lan - зведення, dvorsky - запис з ТБ; український постер - Ermolenko (всі - Гуртом).

Особиста оцінка: 8 - мені сподобалося

ЗАЛИШАЙТЕСЬ ЯКОМОГА ДОВШЕ НА РОЗДАЧІ!

СКАЧАВ САМ - ДАЙ СКАЧАТИ ІНШИМ


Срібний реліз (на рейтинг впливає 50% завантаженого)
 Трекер:    Зареєстрований   

Завантажити / скачати фільм українською



відео для новачків



 Зареєстрований:   2013-09-12 18:51
 Розмір:   4.83 GB 
 Оцінка фільму:   4.5/10 (Голосів: 17)
   
Інші релізи
   Знедолені / Les Miserables (1998) Ukr | Sub Eng/Fra igor911  3 / 0   2.12 GB   2013-09-12 16:40 
   Знедолені / Les Miserables (1998) 1080p Ukr/Eng | Sub Eng igor911  2 / 0   7.67 GB   2013-09-12 12:01 
   Знедолені / Les Miserables (1998) Ukr/Eng | Sub Eng Lan  0 / 3   2.53 GB   2011-11-22 16:23 
   Знедолені / Відторгнуті / Les Miserables (1998) Ukr/Eng NO_1  0 / 0   1.02 GB   2010-01-25 17:37 
Ваш часовий пояс: GMT + 2 Години

Нова тема   Відповісти