Завантажити та скачати торренти українською


Знедолені / Les Miserables (1998) Ukr | Sub Eng/Fra

Нові коментарі

Нова тема   Відповісти
Автор Повідомлення
Anonymous 







2013-09-12 16:40  
Знедолені / Les Miserables (1998) Ukr | Sub Eng/Fra



Альтернативний українізований постер



Прапор чомусь тут став червоним Happy


Жанр: трилер, драма, мелодрама, кримінальний, історичний
Країна: Велика Британія, Німеччина, США



Кінокомпанія: Mandalay Entertainment, TriStar Pictures
Режисер: Біллі Огест / Bille August
Актори: Ліам Нісон / Liam Neeson, Джеффрі Раш / Geoffrey Rush, Ума Турман / Uma Thurman, Клер Дейнс / Claire Danes, Ганс Метісон / Hans Matheson, Рейне Брінолфссон / Reine Brynolfsson

Сюжет:
Екранізація однойменного роману Віктора Гюго. Перша половина дев'ятнадцятого століття. Франція. Європа перебуває на порозі революції. Жан Вальжан - знедолений, засуджений до тюремного ув'язнення і вимушений переховуватися від жорстокого правосуддя. Начальник паризького департаменту поліції Жавер вважає його упіймання справою свого життя. Після смерті коханої Жана єдиною близькою людиною для нього залишається її дочка Козетта. Він піде на все заради щастя дівчини... Навіть назустріч своєму найлютішому ворогові...


рейтинг MPAA: PG-13 - дітям до 13 років перегляд не бажаний
Вікова категорія: 12+

Тривалість: 02:13:57
Якість:
Відео:
кодек:
розмір кадру: 720x304
бітрейт: 1869 кб/с

Аудіо # 1:
мова: українська - Так Треба Продакшн на замовлення
переклад: багатоголосий закадровий
Ролі озвучили: Олег Стальчук (Ліам Нісон / Жан Вальжан), Анатолій Зіновенко (Джефрі Раш / Жавер), Людмила Чиншева і ще один жіночий голос
кодек: 5.1
бітрейт: 384 кб/с

Субтитри #1:
мова: англійська
тип: програмні (м'які)
формат: *.srt

Субтитри #2:
мова: французька
тип: програмні (м'які)
формат: *.srt
MediaInfo
General
Complete name : Les Miserables (1998) [Hurtom, HQClub].avi
Format : AVI
Format/Info : Audio Video Interleave
Format profile : OpenDML
File size : 2.12 GiB
Duration : 2h 13mn
Overall bit rate : 2 265 Kbps
Movie name : Знедолені / Les Miserables / Отверженные (1998)
Director : kingsize87, igor911
Writing application : VirtualDubModRus 1.5.10.2 (build 2540/release)
Writing library : VirtualDubMod build 2540/release
Copyright : HURTOM.COM, HQCLUB
Comment : 12.09.2013

Video
ID : 0
Format : MPEG-4 Visual
Format profile : Advanced [email protected]
Format settings, BVOP : 1
Format settings, QPel : No
Format settings, GMC : No warppoints
Format settings, Matrix : Custom
Codec ID :
Codec ID/Hint :
Duration : 2h 13mn
Bit rate : 1 869 Kbps
Width : 720 pixels
Height : 304 pixels
Display aspect ratio : 2.35:1
Frame rate : 23.976 fps
Color space : YUV
Chroma subsampling : 4:2:0
Bit depth : 8 bits
Scan type : Progressive
Compression mode : Lossy
Bits/(Pixel*Frame) : 0.356
Stream size : 1.75 GiB (83%)
Writing library : 65

Audio
ID : 1
Format : AC-3
Format/Info : Audio Coding 3
Mode extension : CM (complete main)
Format settings, Endianness : Big
Codec ID : 2000
Duration : 2h 13mn
Bit rate mode : Constant
Bit rate : 384 Kbps
Channel(s) : 6 channels
Channel positions : Front: L C R, Side: L R, LFE
Sampling rate : 48.0 KHz
Bit depth : 16 bits
Compression mode : Lossy
Stream size : 368 MiB (17%)
Alignment : Split accross interleaves
Interleave, duration : 42 ms (1.00 video frame)
Interleave, preload duration : 500 ms


Джерела та подяки: &
ріп відео, субтитри - kingsize87 (HQClub); українська доріжка - Lan - зведення, dvorsky - запис з ТБ; український постер - Ermolenko (всі - Гуртом).

Особиста оцінка: 8 - мені сподобалося

ЗАЛИШАЙТЕСЬ ЯКОМОГА ДОВШЕ НА РОЗДАЧІ!

СКАЧАВ САМ - ДАЙ СКАЧАТИ ІНШИМ


Срібний реліз (на рейтинг впливає 50% завантаженого)
 Трекер:    Зареєстрований   

Завантажити / скачати фільм українською



відео для новачків



 Зареєстрований:   2013-09-12 16:40
 Розмір:   2.12 GB 
 Оцінка фільму:   5.7/10 (Голосів: 22)
   
Інші релізи
   Знедолені / Les Miserables (1998) 720p Ukr/Eng | Sub Eng igor911  2 / 0   4.83 GB   2013-09-12 18:51 
   Знедолені / Les Miserables (1998) 1080p Ukr/Eng | Sub Eng igor911  3 / 0   7.67 GB   2013-09-12 12:01 
   Знедолені / Les Miserables (1998) Ukr/Eng | Sub Eng Lan  0 / 1   2.53 GB   2011-11-22 16:23 
   Знедолені / Відторгнуті / Les Miserables (1998) Ukr/Eng NO_1  0 / 0   1.02 GB   2010-01-25 17:37 
Ваш часовий пояс: GMT + 2 Години

Нова тема   Відповісти