Завантажити та скачати торренти українською


Знедолені / Les Miserables (1998) 1080p Ukr/Eng | Sub Eng

Нові коментарі

Нова тема   Відповісти
Автор Повідомлення
Anonymous 







2013-09-12 12:01  
Знедолені / Les Miserables (1998) 1080p Ukr/Eng | Sub Eng



Альтернативний українізований постер



Жанр: трилер, драма, мелодрама, кримінальний, історичний
Країна: Велика Британія, Німеччина, США



Кінокомпанія: Mandalay Entertainment, TriStar Pictures
Режисер: Біллі Огест / Bille August
Актори: Ліам Нісон / Liam Neeson, Джеффрі Раш / Geoffrey Rush, Ума Турман / Uma Thurman, Клер Дейнс / Claire Danes, Ганс Метісон / Hans Matheson, Рейне Брінолфссон / Reine Brynolfsson

Сюжет:
Екранізація однойменного роману Віктора Гюго. Перша половина дев'ятнадцятого століття. Франція. Європа перебуває на порозі революції. Жан Вальжан - знедолений, засуджений до тюремного ув'язнення і вимушений переховуватися від жорстокого правосуддя. Начальник паризького департаменту поліції Жавер вважає його упіймання справою свого життя. Після смерті коханої Жана єдиною близькою людиною для нього залишається її дочка Козетта. Він піде на все заради щастя дівчини... Навіть назустріч своєму найлютішому ворогові...


рейтинг MPAA: PG-13 - дітям до 13 років перегляд не бажаний
Вікова категорія: 12+

Тривалість: 02:13:57
Якість: 1080p
Відео:
кодек:
розмір кадру: 1920x800
бітрейт: 7358 кб/с

Аудіо # 1:
мова: українська - Так Треба Продакшн на замовлення
переклад: багатоголосий закадровий
Ролі озвучили: Олег Стальчук (Ліам Нісон / Жан Вальжан), Анатолій Зіновенко (Джефрі Раш / Жавер), Людмила Чиншева і ще один жіночий голос
кодек: 5.1
бітрейт: 384 кб/с

Аудіо # 2:
мова: англійська
переклад: оригінал
кодек: 5.1
бітрейт: 448 кб/с

Субтитри:
мова: англійська
тип: програмні (м'які)
формат: *.srt
MediaInfo
General
Unique ID : 196869981067235307698670114475236799318 (0x941BC7779BD2A9B0A795759DBADE3356)
Complete name : Les Miserables (1998) [Ukr,Eng;sub.Eng] 1080p [Hurtom].mkv
Format : Matroska
Format version : Version 4 / Version 2
File size : 7.67 GiB
Duration : 2h 13mn
Overall bit rate : 8 193 Kbps
Movie name : Знедолені / Les Miserables / Отверженные (1998) 1080p [Hurtom]
Encoded date : UTC 2013-09-12 08:05:35
Writing application : mkvmerge v6.3.0 ('You can't stop me!') built on Jun 28 2013 20:09:41
Writing library : libebml v1.3.0 + libmatroska v1.4.0

Video
ID : 1
Format : AVC
Format/Info : Advanced Video Codec
Format profile : [email protected]
Format settings, CABAC : Yes
Format settings, ReFrames : 5 frames
Codec ID : V_MPEG4/ISO/AVC
Duration : 2h 13mn
Bit rate : 7 358 Kbps
Width : 1 920 pixels
Height : 800 pixels
Display aspect ratio : 2.40:1
Frame rate mode : Constant
Frame rate : 23.976 fps
Color space : YUV
Chroma subsampling : 4:2:0
Bit depth : 8 bits
Scan type : Progressive
Bits/(Pixel*Frame) : 0.200
Stream size : 6.74 GiB (88%)
Title : Знедолені / Les Miserables / Отверженные (1998) 1080p [Freeisland-delia]
Writing library : core 138 r2359+704+48 3f879a0 tMod [[email protected] X86_64]
Encoding settings : cabac=1 / ref=5 / deblock=1:-3:-3 / analyse=0x3:0x113 / me=umh / subme=10 / psy=1 / fade_compensate=0.00 / psy_rd=0.95:0.05 / mixed_ref=1 / me_range=48 / chroma_me=1 / trellis=2 / 8x8dct=1 / cqm=0 / deadzone=21,11 / fast_pskip=0 / chroma_qp_offset=-3 / threads=6 / lookahead_threads=1 / sliced_threads=0 / nr=0 / decimate=1 / interlaced=0 / bluray_compat=0 / constrained_intra=0 / fgo=0 / bframes=9 / b_pyramid=2 / b_adapt=2 / b_bias=0 / direct=3 / weightb=1 / open_gop=0 / weightp=2 / keyint=250 / keyint_min=23 / scenecut=40 / intra_refresh=0 / rc_lookahead=120 / rc=2pass / mbtree=0 / bitrate=7358 / ratetol=1.0 / qcomp=0.75 / qpmin=0:0:0 / qpmax=69:69:69 / qpstep=4 / cplxblur=20.0 / qblur=0.5 / vbv_maxrate=50000 / vbv_bufsize=62500 / nal_hrd=none / ip_ratio=1.40 / pb_ratio=1.20 / aq=4:0.80 / aq-sensitivity=15.00 / aq-factor=1.00:1.00:1.00 / aq2=0 / aq3=0
Language : English
Default : Yes
Forced : No
Matrix coefficients : BT.709

Audio #1
ID : 2
Format : AC-3
Format/Info : Audio Coding 3
Mode extension : CM (complete main)
Format settings, Endianness : Big
Codec ID : A_AC3
Duration : 2h 13mn
Bit rate mode : Constant
Bit rate : 384 Kbps
Channel(s) : 6 channels
Channel positions : Front: L C R, Side: L R, LFE
Sampling rate : 48.0 KHz
Bit depth : 16 bits
Compression mode : Lossy
Delay relative to video : 1ms
Stream size : 368 MiB (5%)
Title : MVO [Inter-TakTrebaProduction] 5.1 384 kbps [Hurtom-Lan]
Language : Ukrainian
Default : Yes
Forced : No

Audio #2
ID : 3
Format : AC-3
Format/Info : Audio Coding 3
Mode extension : CM (complete main)
Format settings, Endianness : Big
Codec ID : A_AC3
Duration : 2h 13mn
Bit rate mode : Constant
Bit rate : 448 Kbps
Channel(s) : 6 channels
Channel positions : Front: L C R, Side: L R, LFE
Sampling rate : 48.0 KHz
Bit depth : 16 bits
Compression mode : Lossy
Stream size : 429 MiB (5%)
Title : Original 5.1 448 kbps
Language : English
Default : No
Forced : No

Text
ID : 4
Format : UTF-8
Codec ID : S_TEXT/UTF8
Codec ID/Info : UTF-8 Plain Text
Title : Eng full
Language : English
Default : No
Forced : No


Джерела та подяки:
ріп відео, оригінальні звук та субтитри - delia (Freeisland); українська доріжка - Lan - зведення, dvorsky - запис з ТБ; український постер - Ermolenko (всі - Гуртом).

Особиста оцінка: 8 - мені сподобалося

ЗАЛИШАЙТЕСЬ ЯКОМОГА ДОВШЕ НА РОЗДАЧІ!

СКАЧАВ САМ - ДАЙ СКАЧАТИ ІНШИМ


Золотий реліз (завантажене не впливає на рейтинг)
 Трекер:    Зареєстрований   

Завантажити / скачати фільм українською



відео для новачків



 Зареєстрований:   2013-09-12 12:01
 Розмір:   7.67 GB 
 Оцінка фільму:   5/10 (Голосів: 19)
   
Інші релізи
   Знедолені / Les Miserables (1998) 720p Ukr/Eng | Sub Eng igor911  5 / 0   4.83 GB   2013-09-12 18:51 
   Знедолені / Les Miserables (1998) Ukr | Sub Eng/Fra igor911  7 / 0   2.12 GB   2013-09-12 16:40 
   Знедолені / Les Miserables (1998) Ukr/Eng | Sub Eng Lan  1 / 2   2.53 GB   2011-11-22 16:23 
   Знедолені / Відторгнуті / Les Miserables (1998) Ukr/Eng NO_1  0 / 0   1.02 GB   2010-01-25 17:37 
clint 
Поважний учасник


З нами з: 30.03.09
Востаннє: 06.12.16
Повідомлень: 200

2013-09-12 12:12  
скажіть чи слід очікувати 720р ?
Anonymous 







2013-09-12 12:20  
Gnat_ 
Частий відвідувач


З нами з: 30.01.11
Востаннє: 06.12.16
Повідомлень: 47

2013-09-12 12:55  
В кіно були субтитри
Пісні перекладені ?

Anonymous 







2013-09-12 12:57  
Це не мюзикл, дивіться уважно на рік.
Gnat_ 
Частий відвідувач


З нами з: 30.01.11
Востаннє: 06.12.16
Повідомлень: 47

2013-09-12 12:59  
Тоді варто подивитися !!
Lime94 
Новенький


З нами з: 10.08.12
Востаннє: 06.12.16
Повідомлень: 22

2016-05-07 22:42  
крутий фільм
DrBodich 
Новенький


З нами з: 27.01.13
Востаннє: 27.11.16
Повідомлень: 3

2016-05-21 20:47  
Дайте швидкості, будь-ласка!
Вже тиждень качаю, швидкість - вбивча! 5Кб\с!!!
Залишилося тільки 20%....

Lime94 
Новенький


З нами з: 10.08.12
Востаннє: 06.12.16
Повідомлень: 22

2016-05-21 20:53  
DrBodich
треба було швидше написати, люди думаю допомогли б ... Happy

DrBodich 
Новенький


З нами з: 27.01.13
Востаннє: 27.11.16
Повідомлень: 3

2016-05-21 21:20  
Lime94
Дякую, то бува не завдяки Вам вона в мене таки піднялася?)
Звик, просто, до бездонних Раша-торентів у які хоч гукай, хоч не гукай - допомоги не дочекаєшся...

Lime94 
Новенький


З нами з: 10.08.12
Востаннє: 06.12.16
Повідомлень: 22

2016-05-22 06:44  
та моя допомога Happy
Ваш часовий пояс: GMT + 2 Години

Нова тема   Відповісти