Завантажити та скачати торренти українською


Стартрек: Відплата / Зоряний шлях: У пітьму / Star Trek Into Darkness (2013) 720p Ukr/Eng | sub Ukr/Eng

Нові коментарі

Нова тема   Відповісти
Автор Повідомлення
NeetScrool 
Відео Гуртом - фільмокрай
Відео Гуртом - фільмокрай


З нами з: 10.01.13
Востаннє: 06.12.16
Повідомлень: 2218

2013-09-12 08:22  
Стартрек: Відплата / Зоряний шлях: У пітьму / Star Trek Into Darkness (2013) 720p Ukr/Eng | sub Ukr/Eng

Стартрек: Відплата / Зоряний шлях: У пітьму / Star Trek Into Darkness (2013) 720p Ukr/Eng | sub Ukr/Eng


Жанр: фантастика , драма, бойовик
Країна: США



Кінокомпанія: Paramount Pictures Corporation
Режисер: Джей Джей Абрамс
Актори: Бенедикт Камбербетч, Кріс Пайн, Закарі Куінто, Зоі Салдана, Еліс Іве, Карл Урбан, Саймон Пегг, Антон Єльчин, Ноел Клар

Сюжет:
Коли команда Ентерпрайза отримує наказ повернутися додому, то бачить, що неспинна хвиля жаху, що йде зсередини їх власної організації, знищила флот і все, за що він бився, зануривши Землю в пучину кризи. Маючи також і особисті мотиви, капітан Кірк очолює переслідування у саме серце зони військового конфлікту, щоб схопити людину, яка і є тією самою зброєю масового ураження. Просуваючись уперед, наші герої стають учасниками грандіозної шахової партії, де на кону — життя. Тепер любов буде випробувана на міцність, дружні зв'язки розірвані, і багато що буде принесено в жертву для єдиної сім'ї, яка залишилася у Кірка — його команди.


Тривалість: 02:12:12
Якість:
Відео:
кодек:
розмір кадру: 1280 х 534
бітрейт: 8971 кб/с

Аудіо #1:
мова: українська
переклад: професійний дубльований |
кодек: 5.1
бітрейт: 448 кб/с

Аудіо #2:
мова: англійська
переклад: оригінал
кодек: 5.1
бітрейт: 1510 кб/с

Субтитри:
мова: українська (Повні/Написи) |
тип: програмні (м'які)
формат: *.srt

Субтитри:
мова: Англійська (Повні/SDH/SDH Colored) |
тип: програмні (м'які)
формат: *.srt
MediaInfo

General
Unique ID : 245948154948038436791976017432898227252 (0xB907E442655D660BA0E4C3DC02F8CC34)
Complete name : E:\Фільми\Star Trek Into Darkness (2013) 720p.mkv
Format : Matroska
Format version : Version 4 / Version 2
File size : 10.3 GiB
Duration : 2h 12mn
Overall bit rate : 11.2 Mbps
Movie name : Зоряний шлях 2: У пітьму / Star Trek Into Darkness (2013)
Encoded date : UTC 2013-09-15 11:03:17
Writing application : mkvmerge v6.2.0 ('Promised Land') built on Apr 28 2013 12:22:01
Writing library : libebml v1.3.0 + libmatroska v1.4.0

Video
ID : 1
Format : AVC
Format/Info : Advanced Video Codec
Format profile : [email protected]
Format settings, CABAC : Yes
Format settings, ReFrames : 12 frames
Codec ID : V_MPEG4/ISO/AVC
Duration : 2h 12mn
Bit rate : 8 981 Kbps
Width : 1 280 pixels
Height : 534 pixels
Display aspect ratio : 2.40:1
Frame rate mode : Constant
Frame rate : 23.976 fps
Color space : YUV
Chroma subsampling : 4:2:0
Bit depth : 8 bits
Scan type : Progressive
Bits/(Pixel*Frame) : 0.548
Stream size : 8.29 GiB (80%)
Title : Star Trek Into Darkness 2013 720p BluRay DD5.1 -TayTO
Writing library : core 138 r2358 9e941d1
Encoding settings : cabac=1 / ref=12 / deblock=1:-3:-3 / analyse=0x3:0x133 / me=tesa / subme=11 / psy=1 / psy_rd=1.15:0.00 / mixed_ref=1 / me_range=16 / chroma_me=1 / trellis=2 / 8x8dct=1 / cqm=0 / deadzone=21,11 / fast_pskip=0 / chroma_qp_offset=-2 / threads=12 / lookahead_threads=2 / sliced_threads=0 / nr=0 / decimate=1 / interlaced=0 / bluray_compat=0 / constrained_intra=0 / bframes=7 / b_pyramid=2 / b_adapt=2 / b_bias=0 / direct=3 / weightb=1 / open_gop=0 / weightp=2 / keyint=250 / keyint_min=23 / scenecut=40 / intra_refresh=0 / rc=crf / mbtree=0 / crf=15.8 / qcomp=0.75 / qpmin=0 / qpmax=69 / qpstep=4 / ip_ratio=1.40 / pb_ratio=1.30 / aq=1:0.65
Language : English
Default : Yes
Forced : No
Matrix coefficients : BT.709

Audio #1
ID : 2
Format : AC-3
Format/Info : Audio Coding 3
Mode extension : CM (complete main)
Format settings, Endianness : Big
Codec ID : A_AC3
Duration : 2h 12mn
Bit rate mode : Constant
Bit rate : 448 Kbps
Channel(s) : 6 channels
Channel positions : Front: L C R, Side: L R, LFE
Sampling rate : 48.0 KHz
Bit depth : 16 bits
Compression mode : Lossy
Stream size : 423 MiB (4%)
Title : Дубляж | DVD
Language : Ukrainian
Default : No
Forced : No

Audio #2
ID : 3
Format :
Format/Info : Digital Theater Systems
Mode : 16
Format settings, Endianness : Big
Codec ID : A_DTS
Duration : 2h 12mn
Bit rate mode : Constant
Bit rate : 1 509 Kbps
Channel(s) : 6 channels
Channel positions : Front: L C R, Side: L R, LFE
Sampling rate : 48.0 KHz
Bit depth : 24 bits
Compression mode : Lossy
Stream size : 1.39 GiB (14%)
Title : Оригінал
Language : English
Default : No
Forced : No

Text #1
ID : 4
Format : UTF-8
Codec ID : S_TEXT/UTF8
Codec ID/Info : UTF-8 Plain Text
Title : Повні
Language : English
Default : No
Forced : No

Text #2
ID : 5
Format : UTF-8
Codec ID : S_TEXT/UTF8
Codec ID/Info : UTF-8 Plain Text
Title : SDH Colored
Language : English
Default : No
Forced : No

Text #3
ID : 6
Format : UTF-8
Codec ID : S_TEXT/UTF8
Codec ID/Info : UTF-8 Plain Text
Title : SDH
Language : English
Default : No
Forced : No

Text #4
ID : 7
Format : UTF-8
Codec ID : S_TEXT/UTF8
Codec ID/Info : UTF-8 Plain Text
Title : Написи
Language : Ukrainian
Default : Yes
Forced : No

Text #5
ID : 8
Format : UTF-8
Codec ID : S_TEXT/UTF8
Codec ID/Info : UTF-8 Plain Text
Title : Повні
Language : Ukrainian
Default : No
Forced : No

Menu
00:00:00.000 : en:00:00:00.000
00:10:20.370 : en:00:10:20.370
00:19:21.494 : en:00:19:21.494
00:30:03.969 : en:00:30:03.969
00:40:09.115 : en:00:40:09.115
00:46:05.262 : en:00:46:05.262
00:56:38.228 : en:00:56:38.228
01:06:35.783 : en:01:06:35.783
01:12:55.663 : en:01:12:55.663
01:22:45.752 : en:01:22:45.752
01:30:54.741 : en:01:30:54.741
01:38:36.369 : en:01:38:36.369
01:47:09.548 : en:01:47:09.548
01:54:17.142 : en:01:54:17.142
01:59:20.653 : en:01:59:20.653
02:03:18.308 : en:02:03:18.308
Скріншоти












Скріншоти із субтитрами


Джерело:
Особиста оцінка: 0 - не дивився


 Трекер:    Зареєстрований   

Завантажити / скачати фільм українською



відео для новачків



 Зареєстрований:   2013-09-15 13:19
 Розмір:   10.3 GB 
 Оцінка фільму:   9.3/10 (Голосів: 32)
   
Maryena 
Поважний учасник


З нами з: 08.05.08
Востаннє: 25.11.16
Повідомлень: 213

2013-09-12 11:46  
А саби хто робив? З якої мови робився переклад?
DеLight 
Відео Гуртом - фільмокрай
Відео Гуртом - фільмокрай


З нами з: 24.08.11
Востаннє: 17.11.16
Повідомлень: 664

2013-09-12 12:03  
Maryena
Субтитри з блю-рей диску.

NeetScrool 
Відео Гуртом - фільмокрай
Відео Гуртом - фільмокрай


З нами з: 10.01.13
Востаннє: 06.12.16
Повідомлень: 2218

2013-09-13 16:18  

ахахха. От тобі й маєш офіційні субтитри з БД.

Maryena 
Поважний учасник


З нами з: 08.05.08
Востаннє: 25.11.16
Повідомлень: 213

2013-09-13 16:57  
NeetScrool написано:
ахахха. От тобі й маєш офіційні субтитри з БД.


Якщо це говорить Чехов - то все ок.
В мене на жаль, програвач відмовився читати субтитри (((

NeetScrool 
Відео Гуртом - фільмокрай
Відео Гуртом - фільмокрай


З нами з: 10.01.13
Востаннє: 06.12.16
Повідомлень: 2218

2013-09-13 17:59  
Maryena
Це той японець сказав.

Додано через 20 секунд:

Тобто відмовився?

Maryena 
Поважний учасник


З нами з: 08.05.08
Востаннє: 25.11.16
Повідомлень: 213

2013-09-13 18:14  
NeetScrool написано:
Тобто відмовився?


Ну, взяв - і відмовився. Медіапрогравачі взагалі бувають дуже прискіпливі - от цей файл він читає, але саби не бачить.

NeetScrool 
Відео Гуртом - фільмокрай
Відео Гуртом - фільмокрай


З нами з: 10.01.13
Востаннє: 06.12.16
Повідомлень: 2218

2013-09-15 13:22  
Реліз оновлено. Додано укр звук. Перекачайте торрент-файл.

n0_th1nk 
Новенький


З нами з: 29.03.10
Востаннє: 24.11.16
Повідомлень: 4

2013-09-15 23:10  
Дякую
Did Kokos 
VIP


З нами з: 27.05.13
Востаннє: 06.12.16
Повідомлень: 347

2013-09-17 12:54  
(Повні/SDH/SDH Colored)
А що це таке?

NeetScrool 
Відео Гуртом - фільмокрай
Відео Гуртом - фільмокрай


З нами з: 10.01.13
Востаннє: 06.12.16
Повідомлень: 2218

2013-09-17 12:58  
Did Kokos написано:
А що це таке?

Таке як і в інших роздачах.
http://otvet.mail.ru/question/45960911

slvhome 
Свій


З нами з: 03.04.08
Востаннє: 06.12.16
Повідомлень: 121

2013-09-22 19:09  
Дякую. Дуже файне кіно!
Invader-Zim 
Новенький


З нами з: 09.10.13
Востаннє: 30.05.15
Повідомлень: 10

2013-11-16 21:35  
Прошу красно - поділіться укр. доріжкою!
AndrewFG 
VIP


З нами з: 31.10.10
Востаннє: 06.12.16
Повідомлень: 267

2013-11-19 01:34  
Переклад майже ідеальний, окрім - єсть - так, корабель - човен тощо.
NecriSid 
Новенький


З нами з: 09.02.12
Востаннє: 04.12.16
Повідомлень: 8

2014-01-15 20:06  
Український переклад той що був в кінотеатрах?
NeetScrool 
Відео Гуртом - фільмокрай
Відео Гуртом - фільмокрай


З нами з: 10.01.13
Востаннє: 06.12.16
Повідомлень: 2218

2014-01-15 20:49  
NecriSid
Саме так.

Ваш часовий пояс: GMT + 2 Години

Нова тема   Відповісти