Завантажити та скачати торренти українською


Найкраща пропозиція / La migliore offerta (2013) 1080p Ukr/Eng

Нові коментарі

Нова тема   Відповісти
Автор Повідомлення
smak2001 
VIP


З нами з: 06.09.09
Востаннє: 06.12.16
Повідомлень: 457

2013-09-11 19:36  
Найкраща пропозиція / La migliore offerta (2013) 1080p Ukr/Eng

Найкраща пропозиція / La migliore offerta (2013) 1080p Ukr/Eng


Жанр: Мелодрама, Трилер, Драма
Країна: Італія



Кінокомпанія: AdriAlpe-Media OEG, Business Location Sudtirol Alto Adige, Friuli Venezia Giulia Film Commission
Режисер: Джузеппе Торнаторе / Giuseppe Tornatore
Актори: Джеффрі Раш / Geoffrey Rush, Джим Стерджесс / Jim Sturgess, Сільвія Хукс / Sylvia Hoeks, Дональд Сазерленд / Donald Sutherland, Філіп Джексон / Philip Jackson, Дермот Краулі / Dermot Crowley, Кіруна Стамелл / Kiruna Stamell, Лія Кебеде / Liya Kebede, Ген Сето / Gen Seto

Сюжет:
Вергілій Олдман - керуючий директор провідного аукціонного будинку. Час від часу зі своїм партнером Біллі на очах у всього світу він провертає хитромудрі афери, вправно маніпулюючи і вводячи в оману як продавців, так і покупців. У секретному залі своєї вілли він зібрав сотні безцінних картин з різних епох.

Одного разу таємнича жінка, що приховує свою особистість, просить його продати антикваріат її сім'ї. Серед численних творів мистецтва раз за разом Олдман виявляє частинки давно загубленого механізму. У свій час подейкували, що для того щоб його оживити, творці вдавалися до допомоги вищих сил... Складаючи, як пазл, знайдені деталі, разом зі своїм геніальним другом Робертом вони намагаються розгадати цей секрет. Але Олдман зацікавлений не тільки предметами старовини...


Тривалість: 02:09:32
Якість: 1080p
Відео:
кодек: х.264
розмір кадру: 1920x804
бітрейт: 12000 кб/с

Аудіо # 1:
мова: українська
переклад: багатоголосий закадровий
кодек: 5.1
бітрейт: 448 кб/с

Аудіо # 2:
мова: англійська
переклад: оригінал
кодек: 5.1
бітрейт: 1510 кб/с

Джерело озвучення:
MediaInfo
Unique ID : 205290086596854640769025815546892351345 (0x9A716EB8BB2A517B87BC93C97F977771)
Complete name : J:\temp\La.migliore.offerta.2013.1080p.BluRay.Ukr.Eng...mkv
Format : Matroska
File size : 12.6 GiB
Duration : 2h 14mn
Overall bit rate : 13.4 Mbps
Movie name : Luchshee.predlozhenieю2013.D..1080p_RTM
Encoded date : UTC 2013-09-11 11:14:56
Writing application : mkvmerge v2.9.5 ('Tu es le seul') built on Jun 7 2009 11:07:07
Writing library : libebml v0.7.7 + libmatroska v0.8.1

Video
ID : 1
Format : AVC
Format/Info : Advanced Video Codec
Format profile : [email protected]
Format settings, CABAC : Yes
Format settings, ReFrames : 5 frames
Codec ID : V_MPEG4/ISO/AVC
Duration : 2h 14mn
Bit rate : 11.2 Mbps
Nominal bit rate : 12.0 Mbps
Width : 1 920 pixels
Height : 804 pixels
Display aspect ratio : 2.35:1
Frame rate : 24.000 fps
Color space : YUV
Chroma subsampling : 4:2:0
Bit depth : 8 bits
Scan type : Progressive
Bits/(Pixel*Frame) : 0.303
Stream size : 10.5 GiB (83%)
Title : -=Rip by GIU=-
Writing library : core 133 r2334 a3ac64b
Encoding settings : cabac=1 / ref=5 / deblock=1:-3:-3 / analyse=0x3:0x113 / me=umh / subme=11 / psy=1 / psy_rd=1.00:0.50 / mixed_ref=1 / me_range=48 / chroma_me=1 / trellis=2 / 8x8dct=1 / cqm=0 / deadzone=21,11 / fast_pskip=1 / chroma_qp_offset=-4 / threads=12 / lookahead_threads=2 / sliced_threads=0 / nr=0 / decimate=0 / interlaced=0 / bluray_compat=0 / constrained_intra=0 / bframes=8 / b_pyramid=2 / b_adapt=2 / b_bias=0 / direct=3 / weightb=1 / open_gop=0 / weightp=2 / keyint=240 / keyint_min=24 / scenecut=50 / intra_refresh=0 / rc_lookahead=50 / rc=2pass / mbtree=1 / bitrate=12000 / ratetol=1.0 / qcomp=0.80 / qpmin=0 / qpmax=69 / qpstep=4 / cplxblur=20.0 / qblur=0.5 / vbv_maxrate=62500 / vbv_bufsize=78125 / nal_hrd=none / ip_ratio=1.40 / aq=1:1.00
Language : English

Audio #1
ID : 2
Format : AC-3
Format/Info : Audio Coding 3
Mode extension : CM (complete main)
Codec ID : A_AC3
Duration : 2h 14mn
Bit rate mode : Constant
Bit rate : 448 Kbps
Channel(s) : 6 channels
Channel positions : Front: L C R, Side: L R, LFE
Sampling rate : 48.0 KHz
Bit depth : 16 bits
Compression mode : Lossy
Stream size : 431 MiB (3%)
Title : .448.Kbps (6ch) Ukrainian
Language : Ukrainian

Audio #2
ID : 3
Format :
Format/Info : Digital Theater Systems
Codec ID : A_DTS
Duration : 2h 14mn
Bit rate mode : Constant
Bit rate : 1 510 Kbps
Channel(s) : 6 channels
Channel positions : Front: L C R, Side: L R, LFE
Sampling rate : 48.0 KHz
Bit depth : 24 bits
Compression mode : Lossy
Delay relative to video : 11ms
Stream size : 1.42 GiB (11%)
Title : .1509.Kbps (6ch) English
Language : English

Menu #1
00:00:00.000 : en:Chapter 00
00:00:25.750 : en:Chapter 01
00:09:46.208 : en:Chapter 02
00:20:07.250 : en:Chapter 03
00:38:36.458 : en:Chapter 04
00:51:22.541 : en:Chapter 05
01:16:23.583 : en:Chapter 06
01:34:46.583 : en:Chapter 07
01:53:21.666 : en:Chapter 08

Menu #2
00:00:00.000 : en:Chapter 00
00:00:25.750 : en:Chapter 01
00:09:46.208 : en:Chapter 02
00:20:07.250 : en:Chapter 03
00:38:36.458 : en:Chapter 04
00:51:22.541 : en:Chapter 05
01:16:23.583 : en:Chapter 06
01:34:46.583 : en:Chapter 07
01:53:21.666 : en:Chapter 08
Скріншоти


 Трекер:    Зареєстрований   

Завантажити / скачати фільм українською



відео для новачків



 Зареєстрований:   2013-09-11 19:36
 Розмір:   12.63 GB 
 Оцінка фільму:   9.8/10 (Голосів: 16)
   
Інші релізи
DеLight 
Відео Гуртом - фільмокрай
Відео Гуртом - фільмокрай


З нами з: 24.08.11
Востаннє: 17.11.16
Повідомлень: 663

2013-09-11 21:35  
Скріни не з цього релізу 1280 × 536. Замініть.
chebrec' 
Новенький


З нами з: 26.08.13
Востаннє: 19.11.16
Повідомлень: 6

2013-10-06 22:08  
дуже гарний фільм!
zanevsky 
Свій


З нами з: 14.03.09
Востаннє: 10.12.16
Повідомлень: 85

2013-10-29 09:05  
щиро дякую! кіно насправді розкішне…
fiser 
Новенький


З нами з: 17.02.12
Востаннє: 12.10.16
Повідомлень: 1

2014-12-06 21:55  
І сюжет фільму і гра акторів - просто шикарні. Це один із тих фільмів, які запам'ятовуються надовго.
Myro223 
Новенький


З нами з: 30.12.11
Востаннє: 02.12.16
Повідомлень: 1

2015-09-13 18:43  
Один з небагатьох фільмів які захотілось подивитись ще раз. Рекомендую!
poolvetrum 
Поважний учасник


З нами з: 01.06.14
Востаннє: 11.12.16
Повідомлень: 208

2016-06-25 02:09  
Дуже якісний фільм із закрученим і непередбачуваним сюжетом. Джеффрі Раш блискучий - таке враження, що роль писали спеціально під нього. Я захоплювався його грою.
Якщо вагаєтесь,то варіантів нема - однозначно дивитись, такі фільми рідкість

Ваш часовий пояс: GMT + 2 Години

Нова тема   Відповісти