Завантажити та скачати торренти українською


Від колиски до могили / Cradle 2 the Grave (2003) 1080p Ukr/Eng | Sub Eng

Нові коментарі

Нова тема   Відповісти
Автор Повідомлення
Anonymous 







2013-09-10 14:46  
Від колиски до могили / Cradle 2 the Grave (2003) 1080p Ukr/Eng | Sub Eng



Альтернативний постер


Жанр: бойовик, трилер, драма, кримінальний
Країна: США



Кінокомпанія: Warner Bros., Silver Pictures
Режисер: Анджей Бартовяк / Andrzej Bartkowiak
Актори: Джет Лі / Jet Li, DMX / DMX, Том Арнольд / Tom Arnold, Ентоні Андерсон / Anthony Anderson, Гебріел Юніон / Gabrielle Union, Марк Дакаскос / Mark Dacascos та інші.

Сюжет:
Професійний грабіжник і секретний агент об'єднують свої зусилля в боротьбі проти банди лютих гангстерів під керівництвом жорстокого мафіозі... У центрі сюжету - безцінні скарби - чорні алмази з Тайваню. Спочатку їх викрадає банда чорношкірого злодія Тоні Фейта. Але коштовності приносять йому лише неприємності: господар камінчиків, торговець зброєю Лінг, викрадає дочку Фейта і вимагає повернути діаманти.
Тільки повертати вже нічого: камені знову вкрадені, на цей раз бандою місцевого мафіозі Джамбо Чемберса. Щоб повернути доньку та вціліти самому, Фейт вимушений об'єднатися з агентом тайванської розвідки Су, який теж йде по сліду діамантів. Справа в тому, що чорні алмази - зовсім не ювелірні коштовності...


рейтинг MPAA: R - особам до 17 років обов'язкова присутність батьків або дорослого опікуна
Вікова категорія: 16+

Тривалість: 01:41:12
Якість: 1080p
Відео:
кодек:
розмір кадру: 1920 x 796
бітрейт: 14.0 Mbps, crf=18

Аудіо # 1:
мова: українська
переклад: багатоголосий закадровий
Ролі озвучили: Юрій Гребельник (Джет Лі / Су), Володимир Терещук (Марк Дакаскос / Яо Лінь), Дмитро Терещук? і Наталя Поліщук?
кодек: 5.1
бітрейт: 448 кб/с

Аудіо # 2:
мова: англійська
переклад: оригінал
кодек: 5.1
бітрейт: 768 кб/с

Субтитри:
мова: англійська
тип: програмні (м'які)
формат: *.srt

Збережено оригінальні розділи, як на Blu-ray.
MediaInfo та

raw [info]: 1920x796p 1:1 @ 24000/1001 fps (cfr)
[info]: using SAR=1/1
[info]: using cpu capabilities: MMX2 SSE2Fast SSSE3 FastShuffle SSE4.2 AVX
[info]: profile High, level 4.1
[info]: frame I:1177 Avg QP:17.57 size:146005
[info]: frame P:42908 Avg QP:18.78 size:102324
[info]: frame B:101517 Avg QP:20.41 size: 61971
[info]: consecutive B-frames: 4.0% 8.5% 7.9% 72.7% 3.9% 2.1% 0.6% 0.2% 0.1%
[info]: mb I I16..4: 4.5% 75.8% 19.7%
[info]: mb P I16..4: 1.9% 44.2% 5.7% P16..4: 19.2% 21.0% 6.8% 0.9% 0.0% skip: 0.3%
[info]: mb B I16..4: 0.8% 18.8% 2.0% B16..8: 30.2% 17.1% 3.5% direct:16.8% skip:10.9% L0:49.6% L1:32.5% BI:18.0%
[info]: 8x8 transform intra:86.0% inter:69.4%
[info]: coded y,uvDC,uvAC intra: 97.2% 92.7% 71.8% inter: 52.4% 62.2% 18.0%
[info]: i16 v,h,dc,p: 29% 24% 19% 28%
[info]: i8 v,h,dc,ddl,ddr,vr,hd,vl,hu: 12% 11% 29% 7% 8% 8% 7% 8% 10%
[info]: i4 v,h,dc,ddl,ddr,vr,hd,vl,hu: 19% 17% 13% 6% 10% 10% 10% 7% 10%
[info]: i8c dc,h,v,p: 43% 25% 18% 14%
[info]: Weighted P-Frames: Y:2.0% UV:1.0%
[info]: ref P L0: 62.3% 9.9% 19.4% 7.7% 0.7% 0.0%
[info]: ref B L0: 93.6% 5.4% 1.0%
[info]: ref B L1: 97.2% 2.8%
[info]: kb/s:14297.73
encoded 145602 frames, 1.16 fps, 14297.73 kb/s
============================================================
General
Unique ID : 239455232980434702832588903530700723136 (0xB425667D94E7EEA7AD84C01FAC23D3C0)
Complete name : Cradle 2 the Grave (2003) [Ukr,Eng;sub.Eng] 1080p [Hurtom].mkv
Format : Matroska
Format version : Version 4 / Version 2
File size : 11.0 GiB
Duration : 1h 41mn
Overall bit rate : 15.5 Mbps
Movie name : Від колиски до могили / Cradle 2 the Grave / От колыбели до могилы (2003) 1080p [Hurtom]
Encoded date : UTC 2013-09-11 10:00:37
Writing application : mkvmerge v6.3.0 ('You can't stop me!') built on Jun 28 2013 20:09:41
Writing library : libebml v1.3.0 + libmatroska v1.4.0

Video
ID : 1
Format : AVC
Format/Info : Advanced Video Codec
Format profile : [email protected]
Format settings, CABAC : Yes
Format settings, ReFrames : 4 frames
Codec ID : V_MPEG4/ISO/AVC
Duration : 1h 41mn
Bit rate : 14.0 Mbps
Width : 1 920 pixels
Height : 796 pixels
Display aspect ratio : 2.40:1
Frame rate mode : Constant
Frame rate : 23.976 fps
Color space : YUV
Chroma subsampling : 4:2:0
Bit depth : 8 bits
Scan type : Progressive
Bits/(Pixel*Frame) : 0.382
Stream size : 9.89 GiB (90%)
Title : Від колиски до могили / Cradle 2 the Grave / От колыбели до могилы (2003) [Electr0man]
Writing library : core 125 r2208 d9d2288
Encoding settings : cabac=1 / ref=4 / deblock=1:-3:-3 / analyse=0x3:0x133 / me=tesa / subme=11 / psy=1 / psy_rd=1.40:0.00 / mixed_ref=1 / me_range=32 / chroma_me=1 / trellis=2 / 8x8dct=1 / cqm=0 / deadzone=21,11 / fast_pskip=0 / chroma_qp_offset=-2 / threads=6 / lookahead_threads=1 / sliced_threads=0 / nr=0 / decimate=1 / interlaced=0 / bluray_compat=0 / constrained_intra=0 / bframes=8 / b_pyramid=2 / b_adapt=2 / b_bias=0 / direct=1 / weightb=1 / open_gop=0 / weightp=2 / keyint=240 / keyint_min=23 / scenecut=40 / intra_refresh=0 / rc_lookahead=60 / rc=crf / mbtree=0 / crf=18.0 / qcomp=0.60 / qpmin=0 / qpmax=69 / qpstep=4 / vbv_maxrate=62500 / vbv_bufsize=78125 / crf_max=0.0 / nal_hrd=none / ip_ratio=1.30 / pb_ratio=1.20 / aq=2:0.70
Language : English
Default : Yes
Forced : No

Audio #1
ID : 2
Format : AC-3
Format/Info : Audio Coding 3
Mode extension : CM (complete main)
Format settings, Endianness : Big
Codec ID : A_AC3
Duration : 1h 41mn
Bit rate mode : Constant
Bit rate : 448 Kbps
Channel(s) : 6 channels
Channel positions : Front: L C R, Side: L R, LFE
Sampling rate : 48.0 KHz
Bit depth : 16 bits
Compression mode : Lossy
Stream size : 324 MiB (3%)
Title : MVO [ICTV] 5.1 448 kbps [Hurtom-_oles]
Language : Ukrainian
Default : Yes
Forced : No

Audio #2
ID : 3
Format :
Format/Info : Digital Theater Systems
Mode : 16
Format settings, Endianness : Big
Codec ID : A_DTS
Duration : 1h 41mn
Bit rate mode : Constant
Bit rate : 768 Kbps
Channel(s) : 6 channels
Channel positions : Front: L C R, Side: L R, LFE
Sampling rate : 48.0 KHz
Bit depth : 24 bits
Compression mode : Lossy
Stream size : 556 MiB (5%)
Title : Original 5.1 768 kbps
Language : English
Default : No
Forced : No

Text
ID : 4
Format : UTF-8
Codec ID : S_TEXT/UTF8
Codec ID/Info : UTF-8 Plain Text
Title : Eng full
Language : English
Default : No
Forced : No

Menu
00:00:00.000 : en:00:00:00.000
00:04:01.074 : en:00:04:01.074
00:06:40.650 : en:00:06:40.650
00:09:34.157 : en:00:09:34.157
00:13:09.330 : en:00:13:09.330
00:18:28.107 : en:00:18:28.107
00:23:02.881 : en:00:23:02.881
00:27:14.800 : en:00:27:14.800
00:31:29.930 : en:00:31:29.930
00:35:45.643 : en:00:35:45.643
00:39:03.424 : en:00:39:03.424
00:43:35.530 : en:00:43:35.530
00:46:15.940 : en:00:46:15.940
00:51:40.139 : en:00:51:40.139
00:54:34.313 : en:00:54:34.313
00:56:20.294 : en:00:56:20.294
00:59:40.285 : en:00:59:40.285
01:03:28.763 : en:01:03:28.763
01:09:40.259 : en:01:09:40.259
01:12:07.448 : en:01:12:07.448
01:15:41.370 : en:01:15:41.370
01:18:40.633 : en:01:18:40.633
01:23:23.749 : en:01:23:23.749
01:27:21.361 : en:01:27:21.361
01:30:39.267 : en:01:30:39.267
01:34:31.875 : en:01:34:31.875
01:36:29.784 : en:01:36:29.784
01:37:32.346 : en:01:37:32.346


Джерела та подяки:
ріп відео, оригінальні звук та субтитри - Electr0man (рутор); українська доріжка - _oles - зведення, xSlim, 4erkov - запис з ТБ; український постер - Brut (всі - Гуртом).

Особиста оцінка: 0 - не дивився

ЗАЛИШАЙТЕСЬ ЯКОМОГА ДОВШЕ НА РОЗДАЧІ!

СКАЧАВ САМ - ДАЙ СКАЧАТИ ІНШИМ


Срібний реліз (на рейтинг впливає 50% завантаженого)
 Трекер:    Зареєстрований   

Завантажити / скачати фільм українською



відео для новачків



 Зареєстрований:   2013-09-11 13:32
 Розмір:   10.97 GB 
 Оцінка фільму:   4.8/10 (Голосів: 18)
   
Інші релізи
bot 
робот


З нами з: 30.09.07
Востаннє: 26.05.05
Повідомлень: 15967

2013-09-10 14:47  
Тему перенесено з Фільми в HD до форуму Анонси релізів від Відео Гуртом


igor911

bot 
робот


З нами з: 30.09.07
Востаннє: 26.05.05
Повідомлень: 15967

2013-09-11 13:32  
Тему перенесено з Анонси релізів від Відео Гуртом до форуму Фільми в HD


igor911

MrRyanCooper 
VIP


З нами з: 23.08.12
Востаннє: 02.12.16
Повідомлень: 280

2015-08-04 23:18  
Крутяк однако.
Ua.bos_01 
VIP


З нами з: 22.06.15
Востаннє: 02.12.16
Повідомлень: 1290

2015-08-15 22:02  
В мене на касетах є мабуть з п'ять фільмів з участю Джета Лі. Більшість з його фільмів досить цікаві, та навіть повчальні, з прихованою філософією, однак цей фільм, на мою думку, не найкращий його фільм. Переглянув фільм звісно не вперше, однак більше переглядати його не захочеться.
Olkos 
VIP


З нами з: 07.03.09
Востаннє: 02.12.16
Повідомлень: 534

2015-10-01 23:04  
Посередній бойовик, але на один раз може бути.
Ваш часовий пояс: GMT + 2 Години

Нова тема   Відповісти