Завантажити та скачати торренти українською


Дублер / The Valet / La doublure (2006) AVC Ukr/Fre | sub Eng

Нові коментарі

Нова тема   Відповісти
Автор Повідомлення
DеLight 
Відео Гуртом - фільмокрай
Відео Гуртом - фільмокрай


З нами з: 24.08.11
Востаннє: 17.11.16
Повідомлень: 664

2013-09-09 18:41  
Дублер / The Valet / La doublure (2006) AVC Ukr/Fre | sub Eng


Дублер / The Valet / La doublure (2006) AVC Ukr/Fre | sub Eng


+++






Жанр: драма, комедія
Країна: Франція, Італія, Бельгія



Кінокомпанія: Artémis Productions, Banque Populaire Images 6, Canal+ [fr], Ciné Cinémas, EFVE, Gaumont, Kairos, Programme MEDIA de la Communauté Européenne, Sofica Sogécinéma 4, TF1 Films Production
Режисер: Франсіс Вебер / Francis Veber
Актори: Ґад Емалех / Gad Elmaleh, Аліс Таґліоні / Alice Taglioni, Даніель Отей / Daniel Auteuil, Крістін Скотт Томас / Kristin Scott Thomas, Рішар Беррі / Richard Berry, Вірджіні Ледуаен / Virginie Ledoyen, Дені Бун / Dany Boon та інші

Сюжет:
Щоб уникнути скандалу, мільйонер вимушено відсилає свою коханку (топ-модель Елену) в будинок паркувальника автомобілів, який випадково потрапив з нею у кадр папараці. Ситуація погіршується тим, що Франсуа Піньйон (так звуть паркувальника) збирається одружитися на Емілі, дівчині, яку кохає з дитинства.


Тривалість: 01:25:27
Якість: AVC

Відео:
кодек:
розмір кадру: 1024 x 436
бітрейт: 2 619 кб/с

Аудіо #1:
мова: українська
переклад: багатоголосий закадровий
кодек: 2.0
бітрейт: 192 кб/с

Аудіо #2:
мова: французька
переклад: оригінал
кодек: 5.1
бітрейт: 448 кб/с

Субтитри #1: (на вирізаних 10 сек. із-за реклами)
мова: українська
тип: програмні (м'які)
формат: *.srt

Субтитри #2:
мова: англійська
тип: програмні (м'які)
формат: *.srt


MediaInfo

Код:
General
Unique ID                      : 249095727476304458565915429393596058754 (0xBB66179104AF918AA0184F9FF8328C82)
Complete name                  : D:\Torrents\La doublure (2006) AVC [Ukr, Fre] [Hurtom].mkv
Format                         : Matroska
Format version                 : Version 4 / Version 2
File size                      : 1.95 GiB
Duration                       : 1h 25mn
Overall bit rate               : 3 260 Kbps
Movie name                     : La Doublure (2006) AVC [Hurtom]
Encoded date                   : UTC 2013-09-08 14:56:23
Writing application            : mkvmerge v6.3.0 ('You can't stop me!') built on Jun 27 2013 22:06:07
Writing library                : libebml v1.3.0 + libmatroska v1.4.0

Video
ID                             : 1
Format                         : AVC
Format/Info                    : Advanced Video Codec
Format profile                 : [email protected]
Format settings, CABAC         : Yes
Format settings, ReFrames      : 8 frames
Codec ID                       : V_MPEG4/ISO/AVC
Duration                       : 1h 25mn
Bit rate                       : 2 619 Kbps
Width                          : 1 024 pixels
Height                         : 436 pixels
Display aspect ratio           : 2.35:1
Frame rate mode                : Constant
Frame rate                     : 23.976 fps
Color space                    : YUV
Chroma subsampling             : 4:2:0
Bit depth                      : 8 bits
Scan type                      : Progressive
Bits/(Pixel*Frame)             : 0.245
Stream size                    : 1.53 GiB (78%)
Title                          : La Doublure (2006) AVC [Rip by Enigma-Vladislav71]
Writing library                : core 129 r2245 bc13772
Encoding settings              : cabac=1 / ref=8 / deblock=1:-2:-2 / analyse=0x3:0x133 / me=umh / subme=11 / psy=1 / psy_rd=1.00:0.00 / mixed_ref=1 / me_range=48 / chroma_me=1 / trellis=2 / 8x8dct=1 / cqm=0 / deadzone=21,11 / fast_pskip=0 / chroma_qp_offset=-2 / threads=3 / lookahead_threads=1 / sliced_threads=0 / nr=0 / decimate=0 / interlaced=0 / bluray_compat=0 / constrained_intra=0 / bframes=8 / b_pyramid=2 / b_adapt=2 / b_bias=0 / direct=3 / weightb=1 / open_gop=0 / weightp=2 / keyint=240 / keyint_min=23 / scenecut=40 / intra_refresh=0 / rc_lookahead=40 / rc=2pass / mbtree=1 / bitrate=2619 / ratetol=1.0 / qcomp=0.60 / qpmin=10 / qpmax=51 / qpstep=4 / cplxblur=20.0 / qblur=0.5 / ip_ratio=1.40 / aq=2:1.00
Language                       : French
Default                        : Yes
Forced                         : No

Audio #1
ID                             : 2
Format                         : AC-3
Format/Info                    : Audio Coding 3
Mode extension                 : CM (complete main)
Format settings, Endianness    : Big
Codec ID                       : A_AC3
Duration                       : 1h 25mn
Bit rate mode                  : Constant
Bit rate                       : 192 Kbps
Channel(s)                     : 2 channels
Channel positions              : Front: L R
Sampling rate                  : 48.0 KHz
Bit depth                      : 16 bits
Compression mode               : Lossy
Stream size                    : 117 MiB (6%)
Title                          : 2.0; 192 kbps; MVO [Novy Channel]
Language                       : Ukrainian
Default                        : Yes
Forced                         : No

Audio #2
ID                             : 3
Format                         : AC-3
Format/Info                    : Audio Coding 3
Mode extension                 : CM (complete main)
Format settings, Endianness    : Big
Codec ID                       : A_AC3
Duration                       : 1h 25mn
Bit rate mode                  : Constant
Bit rate                       : 448 Kbps
Channel(s)                     : 6 channels
Channel positions              : Front: L C R, Side: L R, LFE
Sampling rate                  : 48.0 KHz
Bit depth                      : 16 bits
Compression mode               : Lossy
Stream size                    : 274 MiB (14%)
Title                          : 5.1; 448 kbps; original
Language                       : French
Default                        : No
Forced                         : No

Text #1
ID                             : 4
Format                         : UTF-8
Codec ID                       : S_TEXT/UTF8
Codec ID/Info                  : UTF-8 Plain Text
Title                          : forced
Language                       : Ukrainian
Default                        : Yes
Forced                         : No

Text #2
ID                             : 5
Format                         : UTF-8
Codec ID                       : S_TEXT/UTF8
Codec ID/Info                  : UTF-8 Plain Text
Title                          : full
Language                       : English
Default                        : No
Forced                         : No

Скріншоти























Джерело: & За запис з ТБ подяка ua2004
Особиста оцінка: легка i весела французька комедія Happy


 Трекер:    Зареєстрований   

Завантажити / скачати фільм українською



відео для новачків



 Зареєстрований:   2013-09-09 18:41
 Розмір:   1.95 GB 
 Оцінка фільму:   9.5/10 (Голосів: 19)
   
Інші релізи
   Дублер / The Valet / La doublure (2006) Ukr/Fre | sub Eng ТОЛЯН  0 / 0   1.31 GB   2013-09-11 05:23 
Xshot 
VIP


З нами з: 22.09.09
Востаннє: 27.11.16
Повідомлень: 1535

2013-09-09 21:21  
Було б в avi - глянув би, а так ні
Maximenko Yuriy 
VIP


З нами з: 17.11.08
Востаннє: 23.11.16
Повідомлень: 379

2013-09-10 14:21  
Delight`
а можна українську доріжку окремо?

ProgBassing 
Відео Гуртом - фільмокрай
Відео Гуртом - фільмокрай


З нами з: 08.03.08
Востаннє: 02.12.16
Повідомлень: 607

2013-09-11 06:53  
Delight` написано:
із-за реклами)


...це кунєшо мошчьно! ;D

Nesamovytyj 
Новенький


З нами з: 09.04.10
Востаннє: 11.11.16
Повідомлень: 11

2013-09-11 08:23  
Фільм класний. Шкода, що реліз тільки зараз. Якраз з жінкою дивився пару тижнів тому
pseudogiant 
VIP


З нами з: 24.08.12
Востаннє: 02.12.16
Повідомлень: 805

2013-09-11 14:49  
Одразу пригадав суперовий фільм "Хамелеон" цього ж режисера, в якому теж був знявся актор Даніель Отей. Сподіваюсь цей буде не гірший.

Ось посилання на "Хамелеона": http://toloka.to/t44131 .
Xshot написано:
Було б в avi - глянув би, а так ні

Аvі - варіант теж є, ось: http://toloka.to/t49921 .

F14 
Свій


З нами з: 13.07.11
Востаннє: 02.12.16
Повідомлень: 56

2013-09-16 10:00  
Хороша смішна французька комедія. Мало хто зараз такі знімає, як французи...
Оцінка 8,5/10

BMK12 
Відео Гуртом - підтримка та поширення
Відео Гуртом - підтримка та поширення


З нами з: 13.04.09
Востаннє: 01.12.16
Повідомлень: 2979

2014-05-04 11:04  
Дуже класний та веселий фільм. Нічого зайвого. Цікаво було переглядати. Моя оцінка 8/10.

Додано через 1 хвилину 19 секунд:

pseudogiant
Дякую за рекомендацію!

Ваш часовий пояс: GMT + 2 Години

Нова тема   Відповісти