Завантажити та скачати торренти українською


Найкраща пропозиція / La migliore offerta (2013) 720p Ukr/Eng

Нові коментарі

Нова тема   Відповісти
Автор Повідомлення
smak2001 
VIP


З нами з: 06.09.09
Востаннє: 06.12.16
Повідомлень: 457

2013-09-09 00:56  
Найкраща пропозиція / La migliore offerta (2013) 720p Ukr/Eng

Найкраща пропозиція / La migliore offerta (2013) 720p Ukr/Eng


Жанр: Мелодрама, Трилер, Драма
Країна: Італія



Кінокомпанія: AdriAlpe-Media OEG, Business Location Sudtirol Alto Adige, Friuli Venezia Giulia Film Commission
Режисер: Джузеппе Торнаторе / Giuseppe Tornatore
Актори: Джеффрі Раш / Geoffrey Rush, Джим Стерджесс / Jim Sturgess, Сільвія Хукс / Sylvia Hoeks, Дональд Сазерленд / Donald Sutherland, Філіп Джексон / Philip Jackson, Дермот Краулі / Dermot Crowley, Кіруна Стамелл / Kiruna Stamell, Лія Кебеде / Liya Kebede, Ген Сето / Gen Seto

Сюжет:
Вергілій Олдман - керуючий директор провідного аукціонного будинку. Час від часу зі своїм партнером Біллі на очах у всього світу він провертає хитромудрі афери, вправно маніпулюючи і вводячи в оману як продавців, так і покупців. У секретному залі своєї вілли він зібрав сотні безцінних картин з різних епох.

Одного разу таємнича жінка, що приховує свою особистість, просить його продати антикваріат її сім'ї. Серед численних творів мистецтва раз за разом Олдман виявляє частинки давно загубленого механізму. У свій час подейкували, що для того щоб його оживити, творці вдавалися до допомоги вищих сил... Складаючи, як пазл, знайдені деталі, разом зі своїм геніальним другом Робертом вони намагаються розгадати цей секрет. Але Олдман зацікавлений не тільки предметами старовини...


Тривалість: 02:09:32
Якість: 720p
Відео:
кодек: х.264
розмір кадру: 1280x536
бітрейт: 4819 кб/с

Аудіо # 1:
мова: українська
переклад: багатоголосий закадровий
кодек: 5.1
бітрейт: 448 кб/с

Аудіо # 2:
мова: англійська
переклад: оригінал
кодек: 5.1
бітрейт: 1510 кб/с

Джерело озвучення:
MediaInfo
\temp\La.migliore.offerta.2013.720p.BluRay.Ukr.Eng...mkv
Format : Matroska
File size : 6.28 GiB
Duration : 2h 9mn
Overall bit rate : 6 936 Kbps
Movie name : La.migliore.offerta.2013.720p.BluRay.Ukr.Eng...mkv_RTM
Encoded date : UTC 2013-09-08 22:33:39
Writing application : mkvmerge v2.9.5 ('Tu es le seul') built on Jun 7 2009 11:07:07
Writing library : libebml v0.7.7 + libmatroska v0.8.1

Video
ID : 1
Format : AVC
Format/Info : Advanced Video Codec
Format profile : [email protected]
Format settings, CABAC : Yes
Format settings, ReFrames : 12 frames
Codec ID : V_MPEG4/ISO/AVC
Duration : 2h 9mn
Bit rate : 4 841 Kbps
Width : 1 280 pixels
Height : 536 pixels
Display aspect ratio : 2.35:1
Frame rate : 24.000 fps
Color space : YUV
Chroma subsampling : 4:2:0
Bit depth : 8 bits
Scan type : Progressive
Bits/(Pixel*Frame) : 0.294
Stream size : 4.38 GiB (70%)
Title : La.migliore.offerta.2013.720p.BluRay.Rus.Eng.HDCLUB
Writing library : core 138 r2359+704+48 3f879a0 tMod [[email protected] X86_64]
Encoding settings : cabac=1 / ref=12 / deblock=1:-3:-3 / analyse=0x3:0x133 / me=umh / subme=11 / psy=1 / fade_compensate=0.00 / psy_rd=1.00:0.00 / mixed_ref=1 / me_range=32 / chroma_me=1 / trellis=2 / 8x8dct=1 / cqm=0 / deadzone=21,11 / fast_pskip=0 / chroma_qp_offset=-2 / threads=12 / lookahead_threads=2 / sliced_threads=0 / nr=0 / decimate=1 / interlaced=0 / bluray_compat=0 / constrained_intra=0 / fgo=0 / bframes=8 / b_pyramid=2 / b_adapt=2 / b_bias=0 / direct=1 / weightb=1 / open_gop=0 / weightp=2 / keyint=240 / keyint_min=24 / scenecut=40 / intra_refresh=0 / rc_lookahead=60 / rc=crf / mbtree=0 / crf=14.5000 / qcomp=0.60 / qpmin=0:0:0 / qpmax=69:69:69 / qpstep=4 / vbv_maxrate=50000 / vbv_bufsize=62500 / crf_max=0.0 / nal_hrd=none / ip_ratio=1.30 / pb_ratio=1.25 / aq=1:0.80 / aq-sensitivity=10.00 / aq-factor=1.00:1.00:1.00 / aq2=0 / aq3=0
Language : English

Audio #1
ID : 2
Format : AC-3
Format/Info : Audio Coding 3
Mode extension : CM (complete main)
Codec ID : A_AC3
Duration : 2h 9mn
Bit rate mode : Constant
Bit rate : 448 Kbps
Channel(s) : 6 channels
Channel positions : Front: L C R, Side: L R, LFE
Sampling rate : 48.0 KHz
Bit depth : 16 bits
Compression mode : Lossy
Stream size : 415 MiB (6%)
Title : DD 5.1 @ 488 kbps - Dubbed [DVD UKR]
Language : Ukrainian

Audio #2
ID : 3
Format :
Format/Info : Digital Theater Systems
Codec ID : A_DTS
Duration : 2h 9mn
Bit rate mode : Constant
Bit rate : 1 510 Kbps
Channel(s) : 6 channels
Channel positions : Front: L C R, Side: L R, LFE
Sampling rate : 48.0 KHz
Bit depth : 24 bits
Compression mode : Lossy
Delay relative to video : 11ms
Stream size : 1.37 GiB (22%)
Title : 5.1 @ 1509 kbps
Language : English

Menu
00:00:00.000 : ru:Chapter 1
00:00:25.750 : ru:Chapter 2
00:09:46.208 : ru:Chapter 3
00:20:07.250 : ru:Chapter 4
00:38:36.458 : ru:Chapter 5
00:51:22.541 : ru:Chapter 6
01:16:23.583 : ru:Chapter 7
01:34:46.583 : ru:Chapter 8
01:53:21.666 : ru:Chapter 9
Скріншоти


 Трекер:    Зареєстрований   

Завантажити / скачати фільм українською



відео для новачків



 Зареєстрований:   2013-09-09 00:56
 Розмір:   6.28 GB 
 Оцінка фільму:   9.4/10 (Голосів: 26)
   
Інші релізи
Gybalj 
Свій


З нами з: 14.05.09
Востаннє: 08.12.16
Повідомлень: 51

2013-09-09 21:44  
Фільм чудовий продуманий до дрібниць, з захопленням починаєш дивитись з другої половини а розвязка взагалі бомбезна - заставляє переосмислити весь фільм, люблю такі трилери!Побільше таких.
yuranako 
VIP


З нами з: 03.11.10
Востаннє: 08.12.16
Повідомлень: 1139

2013-09-09 23:21  
Gybalj написано:
Фільм чудовий продуманий до дрібниць, з захопленням починаєш дивитись з другої половини а розвязка взагалі бомбезна - заставляє переосмислити весь фільм, люблю такі трилери!Побільше таких.

Це не дивно, адже режисером і автором сценарію фільму є Джузеппе Торнаторе. А він вміє знімати прекрасне, я навіть сказав би, магічне кіно. Я поки-що бачив тільки 2 його фільми ("Незнайомка" і "Новий кінотеатр Парадізо"), але вже твердо можу сказати, що він - видатний кіномитець.

olyx 
Відео Гуртом - підтримка та поширення
Відео Гуртом - підтримка та поширення


З нами з: 25.01.10
Востаннє: 05.10.16
Повідомлень: 231

2013-09-10 16:39  
В кращій якості планується?
PUMAUA 
Свій


З нами з: 07.11.09
Востаннє: 08.12.16
Повідомлень: 56

2013-09-11 19:49  
В кінці він сидів в тому барі поки не здурів?)))
waldi-hurtom 
VIP


З нами з: 07.10.12
Востаннє: 08.12.16
Повідомлень: 613

2013-09-14 21:55  
Непоганий фільм. Чимось нагадав Код да Вінчі, тільки менше екшна. Але не менш приємний. 8 з 10. Дякую за свіженький реліз!
vitalykfr 
Новенький


З нами з: 01.07.12
Востаннє: 07.12.16
Повідомлень: 1

2013-10-27 18:25  
Привіт Хлопці підкажіть чому у мене не біжить торнент з цього фільму пише former volume not mounted ?
kino. 
Модератор відео


З нами з: 27.06.10
Востаннє: 08.12.16
Повідомлень: 2900

2013-10-27 19:26  
vitalykfr Ваш рейтинг опустився нижче 0,15. Коли він підніметься до цього рівня, ви знову зможете завантажувати торрент-файли. Почитайте ЦЕ
Надія* 
Свій


З нами з: 19.12.12
Востаннє: 03.12.16
Повідомлень: 86

2014-06-28 16:24  
Дякую, що внесли цей фільм у 25-ку найкращих! А то я його мало не пропустила)
Майстерна бездоганна робота режисера і гра акторів, кожна сцена заворожує. Таке враження, ніби це не фільм, а рідкісна картина досконалого художника, від якої не можеш відвести погляд.

Кому подобається такий стиль кінематографу, то рекомендую також фільм "The Remains of the Day" (Залишок дня).

Ваш часовий пояс: GMT + 2 Години

Нова тема   Відповісти