Завантажити та скачати торренти українською


Невловимий / Точка зникнення / Зникаюча точка / Vanishing Point (1997) AVC UKR / ENG | Sub Ukr

Нові коментарі

Нова тема   Відповісти
Автор Повідомлення
BOOGud 
VIP


З нами з: 06.03.12
Востаннє: 11.11.16
Повідомлень: 907

2013-09-08 13:04  
Невловимий / Точка зникнення / Зникаюча точка / Vanishing Point (1997) AVC | Sub Ukr

Невловимий / Точка зникнення / Зникаюча точка / Vanishing Point (1997) AVC UKR / ENG | Sub Ukr


Інші обкладинки







Жанр: пригодницький, бойовик, драма, романтичний
Країна: США



Режисер: Чарльз Роберт Карнер / Charles Robert Carner
Актори: Віґґо Мортенсен, Девід Кіт, Стів Рейлсбек, Джейсон Прістлі, Джон Доу, Родні Грант, Пол Бенджамін, Пітер Мерник, Джено Сільва, Крістін Еліс, Пета Уілсон, Джеймс МакДоналд

Сюжет:


Ковальські, ветеран «Бурі в пустелі», що перегоняє машини з Нью-Йорка в Айдахо, дізнається, що його вагітна дружина опинилася в лікарні, а життя її і майбутньої дитини загрожує небезпека. Він негайно повертає додому, але поліція зупиняє його за перевищення швидкості. Не зумівши зрозуміти відчайдушний стан водія, вони намагаються його затримати. Згадавши попередній несправедливий арешт за самооборону і втрачений час, Ковальські переступає закон, і починається божевільна гонитва ...


Тривалість: 1:31:13
Якість:
Відео:
кодек:
розмір кадру: 704 х 480
бітрейт: 2 480 кб/с

Аудіо # 1:
мова: українська
переклад: одноголосий закадровий | berkut93
кодек: 2.0
бітрейт: 192 кб/с

Аудіо # 2:
мова: англійська
переклад: оригінал
кодек: 2.0
бітрейт: 192 кб/с

Переклад та озвучення: | berkut93

Монтаж та робота зі звуком: | BOOGud

Джерело озвучення:


Субтитри:
мова: українська
тип: програмні (м'які)
формат: *.srt

Субтитри:
мова: англійська
тип: програмні (м'які)
формат: *.srt
звіт медіаінфо

General
Unique ID : 178943746602634884574856924120605711838 (0x869F4FDEDB8549EBA02F71576CE2DDDE)
Complete name : K:\!720\!temp\Vanishing.Point.1997.AVC...ukr.eng.sub.mkv
Format : Matroska
Format version : Version 2
File size : 1.83 GiB
Duration : 1h 31mn
Overall bit rate : 2 866 Kbps
Encoded date : UTC 2013-09-08 10:21:49
Writing application : mkvmerge v6.2.0 ('Promised Land') built on Apr 28 2013 12:22:01
Writing library : libebml v1.3.0 + libmatroska v1.4.0

Video
ID : 1
Format : AVC
Format/Info : Advanced Video Codec
Format profile : [email protected]
Format settings, CABAC : Yes
Format settings, ReFrames : 9 frames
Codec ID : V_MPEG4/ISO/AVC
Duration : 1h 31mn
Bit rate : 2 480 Kbps
Width : 704 pixels
Height : 480 pixels
Display aspect ratio : 4:3
Frame rate mode : Constant
Frame rate : 23.976 fps
Standard : NTSC
Color space : YUV
Chroma subsampling : 4:2:0
Bit depth : 8 bits
Scan type : Progressive
Bits/(Pixel*Frame) : 0.306
Stream size : 1.55 GiB (85%)
Title : encoded by NcryptoR
Writing library : core 115 r1995 c1e60b9
Encoding settings : cabac=1 / ref=9 / deblock=1:-2:-2 / analyse=0x3:0x133 / me=umh / subme=9 / psy=1 / psy_rd=1.05:0.15 / mixed_ref=1 / me_range=32 / chroma_me=1 / trellis=2 / 8x8dct=1 / cqm=0 / deadzone=21,11 / fast_pskip=0 / chroma_qp_offset=-3 / threads=6 / sliced_threads=0 / nr=0 / decimate=0 / interlaced=0 / bluray_compat=0 / constrained_intra=0 / bframes=10 / b_pyramid=2 / b_adapt=2 / b_bias=0 / direct=3 / weightb=1 / open_gop=0 / weightp=2 / keyint=250 / keyint_min=23 / scenecut=40 / intra_refresh=0 / rc=2pass / mbtree=0 / bitrate=2480 / ratetol=1.0 / qcomp=0.70 / qpmin=0 / qpmax=69 / qpstep=4 / cplxblur=20.0 / qblur=0.5 / ip_ratio=1.40 / pb_ratio=1.30 / aq=2:0.75
Language : English
Default : No
Forced : No
Matrix coefficients : BT.601

Audio #1
ID : 2
Format : AC-3
Format/Info : Audio Coding 3
Mode extension : CM (complete main)
Format settings, Endianness : Big
Codec ID : A_AC3
Duration : 1h 31mn
Bit rate mode : Constant
Bit rate : 192 Kbps
Channel(s) : 2 channels
Channel positions : Front: L R
Sampling rate : 48.0 KHz
Bit depth : 16 bits
Compression mode : Lossy
Stream size : 125 MiB (7%)
Title : UKR by berkut93
Language : Ukrainian
Default : Yes
Forced : Yes

Audio #2
ID : 3
Format : AC-3
Format/Info : Audio Coding 3
Mode extension : CM (complete main)
Format settings, Endianness : Big
Codec ID : A_AC3
Duration : 1h 31mn
Bit rate mode : Constant
Bit rate : 192 Kbps
Channel(s) : 2 channels
Channel positions : Front: L R
Sampling rate : 48.0 KHz
Bit depth : 16 bits
Compression mode : Lossy
Stream size : 125 MiB (7%)
Title : Original
Language : English
Default : No
Forced : No

Text
ID : 4
Format : UTF-8
Codec ID : S_TEXT/UTF8
Codec ID/Info : UTF-8 Plain Text
Title : Українські berku93
Language : Ukrainian
Default : Yes
Forced : Yes

Menu
00:00:00.000 : en:Start Credits
00:03:24.200 : en:Road Block (Main Titles)
00:08:47.500 : en:More Money
00:17:38.600 : en:Speeding Home
00:21:28.800 : en:Fast Getaway
00:27:52.501 : en:Escaping the Four Corners
00:33:57.202 : en:Challengers
00:39:03.502 : en:Remembering
00:43:10.902 : en:False Pursuits
00:52:24.102 : en:Vision Quest
01:01:17.903 : en:Setting the Trap
01:07:56.804 : en:Sprung a Leak
01:11:00.304 : en:Good Women
01:17:09.005 : en:Vanishing Point
01:25:05.205 : en:No Joke
01:30:21.305 : en:End of the Road
01:31:07.939 : en:End Credits
Скріншоти


































































Джерело: &
Особиста оцінка: 10 - без зайвих вагань рекомендую всім!


Авторський реліз (завантажувати можна без реєстрації)
 Трекер:    Зареєстрований   

Завантажити / скачати фільм українською



відео для новачків



 Зареєстрований:   2013-09-08 13:04
 Розмір:   1.83 GB 
 Оцінка фільму:   8.4/10 (Голосів: 14)
   
VINRARUS 
Свій


З нами з: 16.11.11
Востаннє: 30.11.16
Повідомлень: 121

2013-09-10 22:27  
Класний фільм! Без лишнього пафосу і прикрас. Відвик вже від таких фіналів. :roll2:
waldi-hurtom 
VIP


З нами з: 07.10.12
Востаннє: 02.12.16
Повідомлень: 611

2013-10-01 20:28  
Слабенький фільм. Аби дивитись, треба відімкнути мозок. Хлоп поводиться як останній придурок, решта героїв теж. Вікова категорія до 12 років. Автівка симпатична. 4 з 10.
Ваш часовий пояс: GMT + 2 Години

Нова тема   Відповісти