Завантажити та скачати торренти українською


Тренер Картер / Coach Carter (2005) 720p Ukr/Eng

Нові коментарі

Нова тема   Відповісти
Останній раз роздавалося DenisGalmiz (2016-11-20)
Автор Повідомлення
NeetScrool 
Відео Гуртом - фільмокрай
Відео Гуртом - фільмокрай


З нами з: 10.01.13
Востаннє: 05.12.16
Повідомлень: 2214

2013-09-05 16:52  
Тренер Картер / Coach Carter (2005) 720p Ukr/Eng

Тренер Картер / Coach Carter (2005) 720p Ukr/Eng


Жанр: драма, спортивний
Країна: США, Німеччина



Кінокомпанія: Coach Carter, MTV Films
Режисер: Томас Картер
Актори: Семюел Лірой Джексон, Роб Браун, Ченнінг Татум, Рік Ґондзалес, Ашанті

Сюжет:
Кен Картер приймає пропозицію стати головним тренером шкільної команди містечка Ричмонд. Раніше він теж вчився в цій школі й успішно виступав за її баскетбольну команду. Картер швидко розуміє, що гравці йому дісталися страшенно недисципліновані й без жодної краплі поваги до оточуючих. Та новий тренер не відступає, адже він хоче навчити юнаків перемагати. Перемагати не лише на майданчику, а й в реальному житті.


Тривалість: 02:16:20
Якість:
Відео:
кодек:
розмір кадру: 1280 х 536
бітрейт: 6181 кб/с

Аудіо # 1:
мова: українська
переклад: багатоголосий закадровий | Омікрон
кодек: 5.1
бітрейт: 448 кб/с

Аудіо # 2:
мова: англійська
переклад: оригінал
кодек: 5.1
бітрейт: 640 кб/с
MI

General
Unique ID : 235516523790686031228271511040117461698 (0xB12ED5226EB3630281F0CEF3633C52C2)
Complete name : E:\Фільми\Coach.Carter.720p.BluRay..rus-CtrlHD\Coach Carter (2005) [ukr,eng] 720p [Hurtom].mkv
Format : Matroska
Format version : Version 4 / Version 2
File size : 6.92 GiB
Duration : 2h 16mn
Overall bit rate : 7 270 Kbps
Movie name : Тренер Картер / Coach Carter (2005) [Hurtom]
Encoded date : UTC 2013-09-05 10:56:24
Writing application : mkvmerge v6.2.0 ('Promised Land') built on Apr 28 2013 12:22:01
Writing library : libebml v1.3.0 + libmatroska v1.4.0

Video
ID : 1
Format : AVC
Format/Info : Advanced Video Codec
Format profile : [email protected]
Format settings, CABAC : Yes
Format settings, ReFrames : 6 frames
Codec ID : V_MPEG4/ISO/AVC
Duration : 2h 16mn
Bit rate : 6 181 Kbps
Width : 1 280 pixels
Height : 536 pixels
Display aspect ratio : 2.40:1
Frame rate mode : Constant
Frame rate : 23.976 fps
Color space : YUV
Chroma subsampling : 4:2:0
Bit depth : 8 bits
Scan type : Progressive
Bits/(Pixel*Frame) : 0.376
Stream size : 5.75 GiB (83%)
Title : CHD
Writing library : core 65 r1046M 71d34b4
Encoding settings : cabac=1 / ref=6 / deblock=1:-2:-2 / analyse=0x3:0x113 / me=umh / subme=9 / psy_rd=0.9:0.0 / mixed_ref=1 / me_range=32 / chroma_me=1 / trellis=2 / 8x8dct=1 / cqm=0 / deadzone=21,11 / chroma_qp_offset=-2 / threads=6 / nr=0 / decimate=0 / mbaff=0 / bframes=5 / b_pyramid=0 / b_adapt=2 / b_bias=0 / direct=3 / wpredb=1 / keyint=250 / keyint_min=25 / scenecut=40(pre) / rc=2pass / bitrate=6181 / ratetol=1.0 / qcomp=0.60 / qpmin=10 / qpmax=51 / qpstep=4 / cplxblur=20.0 / qblur=0.5 / vbv_maxrate=50000 / vbv_bufsize=50000 / ip_ratio=1.40 / pb_ratio=1.30 / aq=1:1.00
Language : English
Default : Yes
Forced : No

Audio #1
ID : 2
Format : AC-3
Format/Info : Audio Coding 3
Mode extension : CM (complete main)
Format settings, Endianness : Big
Codec ID : A_AC3
Duration : 2h 16mn
Bit rate mode : Constant
Bit rate : 448 Kbps
Channel(s) : 6 channels
Channel positions : Front: L C R, Side: L R, LFE
Sampling rate : 48.0 KHz
Bit depth : 16 bits
Compression mode : Lossy
Stream size : 437 MiB (6%)
Title : Озвучено студією Омікрон на замовлення hurtom.com
Language : Ukrainian
Default : Yes
Forced : No

Audio #2
ID : 3
Format : AC-3
Format/Info : Audio Coding 3
Mode extension : CM (complete main)
Format settings, Endianness : Big
Codec ID : A_AC3
Duration : 2h 16mn
Bit rate mode : Constant
Bit rate : 640 Kbps
Channel(s) : 6 channels
Channel positions : Front: L C R, Side: L R, LFE
Sampling rate : 48.0 KHz
Bit depth : 16 bits
Compression mode : Lossy
Stream size : 624 MiB (9%)
Title : Оригінал
Language : English
Default : No
Forced : No
Скріншоти











Джерело:
Особиста оцінка: 0 - не дивився


 Трекер:    Зареєстрований   

Завантажити / скачати фільм українською



відео для новачків



 Зареєстрований:   2013-09-05 16:53
 Розмір:   6.92 GB 
 Оцінка фільму:   8.9/10 (Голосів: 9)
   
Інші релізи
   Тренер Картер / Coach Carter (2005) 720p Ukr/Eng | sub Eng Omikron  1 / 0   3.34 GB   2013-09-04 19:47 
   Тренер Картер / Coach Carter (2005) Omikron  6 / 0   2.19 GB   2013-09-04 19:47 
   Тренер Картер / Coach Carter (2005) Remux Ukr/Eng | sub Eng Omikron  0 / 0   40.57 GB   2013-09-04 19:11 
   Тренер Картер / Coach Carter (2005) 1080p Ukr/Eng | sub Eng Omikron  2 / 0   12.37 GB   2013-09-04 19:11 
сирник 
Частий відвідувач


З нами з: 13.10.10
Востаннє: 17.01.14
Повідомлень: 44

2013-09-05 19:13  
Треба було викласти той самий скріншот із розмазаною лавкою
NeetScrool 
Відео Гуртом - фільмокрай
Відео Гуртом - фільмокрай


З нами з: 10.01.13
Востаннє: 05.12.16
Повідомлень: 2214

2013-09-05 20:40  
сирник
http://check2pic.ru/compare/31051/

Думаю цього досить, Конфуцію?

Konfucius 
Управління
Управління


З нами з: 30.09.07
Востаннє: 04.12.16
Повідомлень: 4741

2013-09-07 11:13  
І заради цього я маю вантажити і зберігати вдвічі більший реліз? Wide grin Та я вже краще візьму на 12 ГБ нормальний 1080p.

Я думаю, що 720р має стати мейнстрімом і витіснити застарілі 480р на , а цього можна досягнути тільки компромісом між високою якістю і прийнятним розміром. На американських / європейських трекерах це вже давно відбулося завдяки таким групам, як , які користуються надзвичайною популярністю. Для тих, хто має величезні телевізори, або впритул з монітору дивиться фільми, спеціально існують 1080p і ремукси.

NeetScrool 
Відео Гуртом - фільмокрай
Відео Гуртом - фільмокрай


З нами з: 10.01.13
Востаннє: 05.12.16
Повідомлень: 2214

2013-09-08 09:29  
Konfucius написано:
Я думаю, що 720р має стати мейнстрімом і витіснити застарілі 480р на , а цього можна досягнути тільки компромісом між високою якістю і прийнятним розміром. На американських / європейських трекерах це вже давно відбулося завдяки таким групам, як , які користуються надзвичайною популярністю. Для тих, хто має величезні телевізори, або впритул з монітору дивиться фільми, спеціально існують 1080p і ремукси.


Для цього існує, таке поняття як 720р-міні.
А взагалі, допоки в українських домогосподарок будуть старі ДВД, які тільки mpeg2 та й можуть відтворювати то "переходу" не буде.

Додано через 1 хвилину 2 секунди:

Konfucius написано:
І заради цього я маю вантажити і зберігати вдвічі більший реліз?

Думаю там не один такий момент. Думаю у фільмі про спорт має бути багато динаміки.

Ваш часовий пояс: GMT + 2 Години

Нова тема   Відповісти