Завантажити та скачати торренти українською


А ось і Поллі / І прийшла Поллі / Along Came Polly (2004) 1080p 2xUkr/Eng | Sub Eng

Нові коментарі

Нова тема   Відповісти
Автор Повідомлення
Anonymous 







2013-09-04 06:33  
А ось і Поллі / І прийшла Поллі / Along Came Polly (2004) 1080p 2xUkr/Eng | Sub Eng



Жанр: мелодрама, комедія
Країна: США



Кінокомпанія: Universal Pictures, Jersey Films, Loofah Productions
Режисер: Джон Гамбург / John Hamburg
Актори: Бен Стіллер / Ben Stiller, Дженніфер Еністон / Jennifer Aniston, Брайан Браун / Bryan Brown, Алек Болдуін / Alec Baldwin, Філіп Сеймур Гофман / Philip Seymour Hoffman, Дебра Мессінг / Debra Messing, Генк Азарія / Hank Azaria, Боб Діши / Bob Dishy та інші

Сюжет:
Фінансовий аналітик Рубен (Бен Стіллер) – професіонал з уникнення ризиків. Причому не лише в бізнесі, але і в особистому житті. І ось він зустрічає відчайдушну дівчину...


рейтинг MPAA: PG-13 - дітям до 13 років перегляд не бажаний
Вікова категорія: 12+

Тривалість: 01:30:10
Якість: 1080p
Відео:
кодек:
розмір кадру: 1920x1040
бітрейт: 11,5 Мбіт/с

Аудіо # 1:
мова: українська
переклад: багатоголосий закадровий - Так Треба Продакшн на замовлення
кодек: 2.0
бітрейт: 192 кб/с

Аудіо # 2:
мова: українська
переклад: двоголосий закадровий
ролі озвучили: Андрій Самінін (усі чоловічі ролі)
кодек: 2.0
бітрейт: 192 кб/с
примітка: на кілька фраз, відсутніх у трансляції Нового каналу, зроблено вставки з озвучкою від "Так Треба Продакшн"

Аудіо # 3:
мова: англійська
переклад: оригінал
кодек: 5.1
бітрейт: 384 кб/с

Субтитри # 1:
мова: англійська (повні)
тип: програмні (м'які)
формат: *.srt
MediaInfo та log
Код:
General
Unique ID                   : 212536462412477877921882803019869328565 (0x9FE508A2194EFE3DB7F7DF9613D814B5)
Complete name               : Along Came Polly (2004) [2xUkr,Eng sub.Eng] 1080p [Hurtom].mkv
Format                      : Matroska
Format version              : Version 4 / Version 2
File size                   : 7.70 GiB
Duration                    : 1h 30mn
Overall bit rate            : 12.2 Mbps
Movie name                  : А ось і Поллі / І прийшла Поллі / Along Came Polly (2004) [2xUkr,Eng sub.Eng] 1080p [Hurtom]
Encoded date                : UTC 2015-09-24 09:50:39
Writing application         : mkvmerge v8.4.0 ('A better way to fly') 64bit
Writing library             : libebml v1.3.1 + libmatroska v1.4.2
Attachements                : x264log.txt / cover.jpg
DURATION                    : 01:30:10.336000000
NUMBER_OF_FRAMES            : 169073
NUMBER_OF_BYTES             : 129848064
_STATISTICS_WRITING_APP     : mkvmerge v8.4.0 ('A better way to fly') 64bit
_STATISTICS_WRITING_DATE_UT : 2015-09-24 09:50:39
_STATISTICS_TAGS            : BPS DURATION NUMBER_OF_FRAMES NUMBER_OF_BYTES

Video
ID                          : 1
Format                      : AVC
Format/Info                 : Advanced Video Codec
Format profile              : [email protected]
Format settings, CABAC      : Yes
Format settings, ReFrames   : 4 frames
Codec ID                    : V_MPEG4/ISO/AVC
Duration                    : 1h 30mn
Bit rate                    : 11.5 Mbps
Width                       : 1 920 pixels
Height                      : 1 040 pixels
Display aspect ratio        : 1.85:1
Frame rate mode             : Constant
Frame rate                  : 23.976 fps
Color space                 : YUV
Chroma subsampling          : 4:2:0
Bit depth                   : 8 bits
Scan type                   : Progressive
Bits/(Pixel*Frame)          : 0.240
Stream size                 : 7.07 GiB (92%)
Title                       : А ось і Поллі / І прийшла Поллі / Along Came Polly / А вот и Полли (2004) [Freeisland-delia]
Writing library             : core 135 r2345kMod f0c1c53
Encoding settings           : cabac=1 / ref=4 / deblock=1:-2:-2 / analyse=0x3:0x113 / me=umh / subme=10 / psy=1 / fade_compensate=0.00 / psy_rd=1.00:0.05 / mixed_ref=1 / me_range=48 / chroma_me=1 / trellis=2 / 8x8dct=1 / cqm=0 / deadzone=21,11 / fast_pskip=0 / chroma_qp_offset=-3 / threads=6 / lookahead_threads=1 / sliced_threads=0 / nr=0 / decimate=1 / interlaced=0 / bluray_compat=0 / constrained_intra=0 / bframes=8 / b_pyramid=2 / b_adapt=2 / b_bias=0 / direct=3 / weightb=1 / open_gop=0 / weightp=2 / keyint=250 / keyint_min=23 / scenecut=40 / intra_refresh=0 / rc_lookahead=40 / rc=2pass / mbtree=0 / bitrate=11471 / ratetol=1.0 / qcomp=0.75 / qpmin=0 / qpmax=69 / qpstep=4 / cplxblur=20.0 / qblur=0.5 / vbv_maxrate=62500 / vbv_bufsize=78125 / nal_hrd=none / ip_ratio=1.40 / pb_ratio=1.30 / aq=1:0.80
Language                    : English
Default                     : Yes
Forced                      : Yes
Color range                 : Limited
Matrix coefficients         : BT.709
DURATION                    : 01:30:10.405000000
NUMBER_OF_FRAMES            : 129720
NUMBER_OF_BYTES             : 7751122536
_STATISTICS_WRITING_APP     : mkvmerge v8.4.0 ('A better way to fly') 64bit
_STATISTICS_WRITING_DATE_UT : 2015-09-24 09:50:39
_STATISTICS_TAGS            : BPS DURATION NUMBER_OF_FRAMES NUMBER_OF_BYTES

Audio #1
ID                          : 2
Format                      : AC-3
Format/Info                 : Audio Coding 3
Mode extension              : CM (complete main)
Format settings, Endianness : Big
Codec ID                    : A_AC3
Duration                    : 1h 30mn
Bit rate mode               : Constant
Bit rate                    : 192 Kbps
Channel(s)                  : 2 channels
Channel positions           : Front: L R
Sampling rate               : 48.0 KHz
Compression mode            : Lossy
Stream size                 : 124 MiB (2%)
Title                       : MVO [TTP-Ukraina,NLO] 2.0 192 kbps [Hurtom-Arsenfpu,РОМЕО]
Language                    : Ukrainian
Default                     : Yes
Forced                      : Yes

Audio #2
ID                          : 3
Format                      : AC-3
Format/Info                 : Audio Coding 3
Mode extension              : CM (complete main)
Format settings, Endianness : Big
Codec ID                    : A_AC3
Duration                    : 1h 30mn
Bit rate mode               : Constant
Bit rate                    : 192 Kbps
Channel(s)                  : 2 channels
Channel positions           : Front: L R
Sampling rate               : 48.0 KHz
Compression mode            : Lossy
Stream size                 : 124 MiB (2%)
Title                       : MVO [Novyj] 2.0 192 kbps [Hurtom-Givi,Arsenfpu,ua2004]
Language                    : Ukrainian
Default                     : No
Forced                      : No

Audio #3
ID                          : 4
Format                      : AC-3
Format/Info                 : Audio Coding 3
Mode extension              : CM (complete main)
Format settings, Endianness : Big
Codec ID                    : A_AC3
Duration                    : 1h 30mn
Bit rate mode               : Constant
Bit rate                    : 384 Kbps
Channel(s)                  : 6 channels
Channel positions           : Front: L C R, Side: L R, LFE
Sampling rate               : 48.0 KHz
Compression mode            : Lossy
Stream size                 : 248 MiB (3%)
Title                       : Original 5.1 384 kbps
Language                    : English
Default                     : No
Forced                      : No

Text
ID                          : 5
Format                      : UTF-8
Codec ID                    : S_TEXT/UTF8
Codec ID/Info               : UTF-8 Plain Text
Title                       : Eng full
Language                    : English
Default                     : No
Forced                      : No


Код:
[info]: frame I:985 Avg QP:17.37 size:187929
[info]: frame P:27746 Avg QP:19.01 size: 94645
[info]: frame B:100989 Avg QP:21.57 size: 48916


Джерела та подяки: ріп відео, оригінальні звук та субтитри - delia (FREEISLAND); українські доріжки: 1) Arsenfpu - зведення, РОМЕО - запис з ТБ; 2) Givi, Arsenfpu - зведення, ua2004 - запис з ТБ; український постер - FireStar (всі - Гуртом).

24.09.2015 реліз оновлено - додано озвучку від ТТП (запис з НЛО-ТБ), замінено озвучку Нового (запис той самий) - замість форсованих субтитрів на неозвучені фрази зроблено вставки озвучки ТТП.

ЗАЛИШАЙТЕСЬ ЯКОМОГА ДОВШЕ НА РОЗДАЧІ!

СКАЧАВ САМ - ДАЙ СКАЧАТИ ІНШИМ


Срібний реліз (на рейтинг впливає 50% завантаженого)
 Трекер:    Зареєстрований   

Завантажити / скачати фільм українською



відео для новачків



 Зареєстрований:   2015-09-24 14:55
 Розмір:   7.7 GB 
 Оцінка фільму:   3.7/10 (Голосів: 16)
   
Інші релізи
Anonymous 







2015-09-24 15:02  
Реліз оновлено - додано озвучку від ТТП (запис з НЛО-ТБ), замінено озвучку Нового - замість форсованих субтитрів на неозвучені фрази зроблено вставки озвучки ТТП.
Ваш часовий пояс: GMT + 2 Години

Нова тема   Відповісти